Торрент файл
скачать торрент магнет ссылка Добавлен: 08 мар 2015, 20:48
Размер: 745.93 МБ
Сидеров: 10
Личеров: 4
Статус: (salma3)
Автор

СообщениеДобавлено: 08 мар 2015, 20:48 

Не в сети
Зам. Админа
Аватара пользователя
Дата регистрации:
02 дек 2010, 12:39
Спасибо: 12623 / 214
Сообщения: 28012
Год выхода: 2014
Жанр: Боевик
Режиссер: Ник Пауэлл
В ролях: Николас Кейдж, Хейден Кристенсен, Лю Ифэй, Рон Смуренбург, Энди Он, Джавед Эль Берни, Фернандо Чиен, Престон Бэйкер, Байрон Лосон, Томер Оз

О фильме:
Действие будет происходить в Китае в десятом веке, и в центре истории — воин, который, чтобы вернуть доверие, вызывается спасти принцессу...

  

Качество: HDRip
Видео: XviD,688x288 , 23.976 fps, ~921 Kbit/s
Аудио: 48 kHz, MPEG Layer 3, 2 ch, ~128.00 kbps avg
Продолжительность: 01:38:34
Перевод: Любительский (двухголосый) [Пиратская студия]

Полное имя                               : G:V.izgnanii.2014.L2.HDRip.avi
Формат                                   : AVI
Формат/Информация                        : Audio Video Interleave
Размер файла                             : 746 Мбайт
Продолжительность                        : 1 ч. 38 м.
Общий поток                              : 1058 Кбит/сек
Программа кодирования                    : VirtualDubMod 1.5.10.3 | http://www.virtualdub-fr.org || (build 2550/release)
Библиотека кодирования                   : VirtualDubMod build 2550/release

Видео
Идентификатор                            : 0
Формат                                   : MPEG-4 Visual
Профиль формата                          : Advanced Simple@L5
Параметр BVOP формата                    : 1
Параметр QPel формата                    : Нет
Параметр GMC формата                     : Без точки перехода
Параметр матрицы формата                 : Выборочная
Идентификатор кодека                     : XVID
Идентификатор кодека/Подсказка           : XviD
Продолжительность                        : 1 ч. 38 м.
Битрейт                                  : 921 Кбит/сек
Ширина                                   : 688 пикселей
Высота                                   : 288 пикселей
Соотношение сторон                       : 2,40:1
Частота кадров                           : 23,976 кадра/сек
Цветовое пространство                    : YUV
Субдискретизация насыщенности            : 4:2:0
Битовая глубина                          : 8 бит
Тип развёртки                            : Прогрессивная
Метод сжатия                             : С потерями
Бит/(Пиксели*Кадры)                      : 0.194
Размер потока                            : 649 Мбайт (87%)
Библиотека кодирования                   : XviD 73

Аудио
Идентификатор                            : 1
Формат                                   : MPEG Audio
Версия формата                           : Version 1
Профиль формата                          : Layer 3
Идентификатор кодека                     : 55
Идентификатор кодека/Подсказка           : MP3
Продолжительность                        : 1 ч. 38 м.
Вид битрейта                             : Постоянный
Битрейт                                  : 128 Кбит/сек
Каналы                                   : 2 канала
Частота                                  : 48,0 КГц
Метод сжатия                             : С потерями
Размер потока                            : 90,2 Мбайт (12%)
Выравнивание                             : Соединение по промежуткам
Продолжительность промежутка             : 42  мс. (1,00 видеокадр)
Время предзагрузки промежутка            : 504  мс.
Библиотека кодирования                   : LAME3.99r
Настройки программы                      : -m s -V 4 -q 2 -lowpass 17 -b 128
















реклама партнёра


Вернуться к началу
 Профиль  
 
   Похожие торренты   Автор   Торрент   Размер 
В этой теме нет новых непрочитанных сообщений. В изгнании /  Outcast [Боевик, 2014] WEB-DLRip [Пиратская студия]

Dracon

50 | 3

699.62 МБ

В этой теме нет новых непрочитанных сообщений. В изгнании / Outcast [Боевик, 2014] WEB-DL 720p [Пиратская студия]

Dracon

32 | 4

3.4 ГБ

В этой теме нет новых непрочитанных сообщений. В изгнании / Outcast (Ник Пауэлл) [2014, боевик, HDRip | Лицензия]

Nickolas3435

794 | 44

1.46 ГБ

В этой теме нет новых непрочитанных сообщений. В изгнании / Outcast (Ник Пауэлл) [Боевик, приключения, 2014] BDRip 720p, Mvo [Лицензия]

Dracon

831 | 61

5.37 ГБ

В этой теме нет новых непрочитанных сообщений. Стрингер / Nightcrawler [триллер, драма, криминал, 2014] WEBRip 720p [Пиратская студия]

Dracon

1997 | 67

2.14 ГБ

В этой теме нет новых непрочитанных сообщений. Молодая кровь / Son of a Gun [боевик, драма, криминал, 2014] HDRip [Студия Пиратского Дубляжа]

Dracon

200 | 12

1.37 ГБ

В этой теме нет новых непрочитанных сообщений. Железная схватка / Robot Overlords (Джон Райт) [фантастика, боевик, приключения, 2014] HDRip [Студия Пиратского дубляжа]

Dracon

9 | 1

1.37 ГБ


Начать новую тему Ответить на тему  [ 1 сообщение ] 




Для Мосгорсуда, Роскомнадзора и рекламодателей:: mosgorsud-torrent[собачка]yandex.ru