Торрент файл
скачать торрент магнет ссылка Добавлен: 03 мар 2015, 10:58
Размер: 2.79 ГБ
Сидеров: 5
Личеров: 4
Статус: (salma3)
Автор

СообщениеДобавлено: 03 мар 2015, 10:58 

Не в сети
Зам. Админа
Аватара пользователя
Дата регистрации:
02 дек 2010, 12:39
Спасибо: 12623 / 214
Сообщения: 28012
Год выхода: 2014
Жанр: Фэнтези, приключения
Режиссер: Питер Джексон
В ролях: Мартин Фриман, Иэн МакКеллен, Ричард Армитедж, Люк Эванс, Эванджелин Лилли, Ли Пейс, Орландо Блум, Бенедикт Камбербэтч, Кен Стотт, Эйдан Тернер

О фильме:Когда отряд из тринадцати гномов нанимал хоббита Бильбо Бэгинса в качестве взломщика и четырнадцатого, «счастливого», участника похода к Одинокой горе, Бильбо полагал, что его приключения закончатся, когда он выполнит свою задачу — найдет сокровище, которое так необходимо предводителю гномов Торину. Путешествие в Эребор, захваченное драконом Смаугом королевство гномов, оказалось еще более опасным, чем предполагали гномы и даже Гэндальф — мудрый волшебник, протянувший Торину и его отряду руку помощи.
В погоню за гномами устремилась армия орков, ведомых пробудившимся в руинах древним злом, а эльфы и люди, с которыми Бильбо и его товарищам пришлось иметь дело во время путешествия и которые пострадали от последствий желания гномов вернуть свой дом, предъявили права на щедрое вознаграждение — часть сокровищ Одинокой горы. Скоро неподалеку от Одинокой горы встретятся пять армий, и лишь кровопролитная битва определит результаты смелого гномьего похода.

Качество: WEB-DLRip
Видео: DivX, 720x304, 23.976 fps, ~2040 Kbit/s
Аудио 1: AC3, 48 kHz, 6 ch, 384 kbps [Русский]
Аудио 2: AAC, 48 kHz, 2 ch, 128 kbps [Украинский]
Аудио 3: AAC, 48 kHz, 2 ch, 128 kbps [Английский]
Продолжительность: 02:24:26
Перевод: Дублированный [iTunes]
Примечание: На речь Эльфов и Орков Субтитры

Полное название: The.Hobbit.The.Battle.of.the.Five.Armies.2014.WEB-DLRip.Rus.Ukr.Eng.rip.by.Andreshko.avi
Формат: AVI
Формат / Информация: Audio Video Interleave
Размер файла: 2.79 GiB
В целом скорость передачи: 6 613 б.п.

Видео
ID: 0
Формат: MPEG-4 Visual
Формат раздел: Расширенный Простой @ L4
Установки формата BVOP: 2
Установки формата Qpel: Нет
Установки формата GMC: Нет warppoints
Установки формата Matrix: По умолчанию (MPEG)
Кодек ID: DIVX
Кодек ID / Информация: Project Mayo
Кодек ID / Подсказка: DivX 4
Продолжительность: 2 часа 24 млн
Скорость передачи данных: 2 040 Kbps
Ширина: 720 пикселей
Рост: 304 пикселей
Соотношение сторон дисплея: 2,35: 1
Частота кадров: 23,976 кадров в секунду
Цветовое пространство: YUV
Chroma субвыборку: 4: 2: 0
Разрядность: 8 бит
Тип сканирования: Прогрессивная
Режим сжатия: С потерями
Биты / (Pixel * Frame): 0.389
Размер потока: 2,06 Гигабайт (74%)
Написание библиотека: XviD 64

Аудио # 1
ID: 1
Формат: AC-3
Формат / Информация: Audio Coding 3
Расширение режима: CM (полный основной)
Установки формата Порядок байтов: Большой
Кодек ID: 2000
Продолжительность: 2 часа 24 млн
Режим скорости передачи данных: Постоянная
Скорость передачи данных: 384 Kbps
Канал (ы): 6 каналов
Положение каналов: Front: LCR, Боковые: LR, LFE
Частота дискретизации: 48.0 кГц
Разрядность: 16 бит
Режим сжатия: С потерями
Размер потока: 397 MiB (14%)
Выравнивание: выровнены по прокладочных листов
Interleave, продолжительность: 32 мс (0,77 видеокадр)

Аудио # 2
ID: 2
Формат: AAC
Формат / Информация: Advanced Audio Codec
Формат раздел: LC
Кодек ID: FF
Продолжительность Источник: 2h 56 млн
Скорость передачи данных: 128 Kbps
Канал (ы): 2 канала
Положение каналов: Front: L R
Частота дискретизации: 48.0 кГц
Режим сжатия: С потерями
Размер потока: 162 MiB (6%)
Выравнивание: Split accross прокладочных
Interleave, продолжительность: 21 мс (0,51 видеокадр)

Аудио # 3
ID: 3
Формат: AAC
Формат / Информация: Advanced Audio Codec
Формат раздел: LC
Кодек ID: FF
Продолжительность Источник: 2h 57 млн
Скорость передачи данных: 128 Kbps
Канал (ы): 2 канала
Положение каналов: Front: L R
Частота дискретизации: 48.0 кГц
Режим сжатия: С потерями
Размер потока: 162 MiB (6%)
Выравнивание: Split accross прокладочных
Interleave, продолжительность: 21 мс (0,51 видеокадр)


















реклама партнёра


Вернуться к началу
 Профиль  
 
   Похожие торренты   Автор   Торрент   Размер 
В этой теме нет новых непрочитанных сообщений. Хоббит: Битва пяти воинств / The Hobbit: The Battle of the Five Armies (Питер Джексон) [Фэнтези, Приключения, 2014] WEB-DLRip-AVC, Dub [iTunes]

Dracon

378 | 8

3.29 ГБ

В этой теме нет новых непрочитанных сообщений. Хоббит: Битва пяти воинств / The Hobbit: The Battle of the Five Armies (Питер Джексон) [Фэнтези, Приключения, 2014] WEB-DLRip, Dub [iTunes]

Dracon

42 | 5

1.46 ГБ

В этой теме нет новых непрочитанных сообщений. Хоббит: Битва пяти воинств / The Hobbit: The Battle of the Five Armies (Питер Джексон) [Фэнтези, Приключения, 2014] WEB-DLRip, Dub [iTunes]

Dracon

838 | 12

2.05 ГБ

В этой теме нет новых непрочитанных сообщений. Хоббит: Битва пяти воинств / The Hobbit: The Battle of the Five Armies (Питер Джексон) [Фэнтези, Приключения, 2014] BDRip, Dub [iTunes]

Dracon

18 | 3

2.05 ГБ

В этой теме нет новых непрочитанных сообщений. Хоббит: Битва пяти воинств / The Hobbit: The Battle of the Five Armies (Питер Джексон) [Фэнтези, Приключения, 2014] WEB-DL 720p, Dub [iTunes]

Dracon

418 | 9

4.82 ГБ

В этой теме нет новых непрочитанных сообщений. Хоббит: Битва пяти воинств / The Hobbit: The Battle of the Five Armies (Питер Джексон) [Фэнтези, Приключения, 2014] DVD5, Dub+Sub [iTunes]

Dracon

31 | 6

4.31 ГБ

В этой теме нет новых непрочитанных сообщений. Хоббит: Битва пяти воинств / The Hobbit: The Battle of the Five Armies (Питер Джексон) [Фэнтези, Приключения, 2014] BDRip 1080p, Dub+Sub [iTunes | 3D-Video]

Dracon

13 | 5

16.15 ГБ


Начать новую тему Ответить на тему  [ 1 сообщение ] 




Для Мосгорсуда, Роскомнадзора и рекламодателей:: mosgorsud-torrent[собачка]yandex.ru