Торрент файл
скачать торрент магнет ссылка Добавлен: 03 мар 2015, 00:44
Размер: 2.58 ГБ
Сидеров: 30
Личеров: 3
Статус: (salma3)
Автор

СообщениеДобавлено: 03 мар 2015, 00:44 

Не в сети
Супермодератор
Аватара пользователя
Дата регистрации:
15 фев 2012, 16:44
Возраст: 27
Спасибо: 5130 / 2089
Сообщения: 17350
Название: Гибрид
Жанр: Фантастика
Режиссёр: Билли О`Брайэн
Год: 2014

В ролях: Джон Линч, Морьяна Алауи, Крэйг Конуэй, Антония Томас, Джумэйн Хантер, Бет Уинслет, Нед Деннехи, Перри Хэнсон, Эдвард Доглиани, Chris Ellis-Stanton



.. Элитная команда наемников - выбрана для проведения тайной операции в бывшей Советской республике. Сначала они должны сразиться со свирепыми вооруженными ополченцами, чтобы пробиться к спуску в подземный лабиринт, населенный страшными монстрами - плодом скрещивания ДНК человека из инопланетян...

Страна: Великобритания
Продолжительность: 01:34
Перевод: Любительский одноголосый ( Хихидок )
Контейнер: MKV
Кодек: MPEG-4
Качество: WEB-DL
Видео: 3262 kb/s, 1280x532
Звук: Russian: AC3, 192 kb/s (2 ch) / English: AC3, 384 kb/s (6 ch)
Субтитры: English



Уникальный идентификатор : 217011256454810182296150150634584833962 (0xA342D9035C88114893B8B7BB909A7FAA)
Полное имя : Гибрид Scintilla The Hybrid (2014) WEB-DL 720pHybrid.2014.720p.WEB-DL.mkv
Формат : Matroska
Версия формата : Version 4 / Version 2
Размер файла : 2,58 Гбайт
Продолжительность : 1 ч. 34 м.
Общий поток : 3916 Кбит/сек
Дата кодирования : UTC 2015-03-02 13:55:38
Программа кодирования : mkvmerge v7.2.0 ('On Every Street') 32bit built on Sep 13 2014 15:42:11
Библиотека кодирования : libebml v1.3.0 + libmatroska v1.4.1

Видео
Идентификатор : 1
Формат : MPEG-4 Visual
Профиль формата : Simple@L5
Параметр BVOP формата : Нет
Параметр QPel формата : Нет
Параметр GMC формата : Без точки перехода
Параметр матрицы формата : Default (H.263)
Идентификатор кодека : V_MS/VFW/FOURCC / XVID
Идентификатор кодека/Подсказка : XviD
Битрейт : 3262 Кбит/сек
Ширина : 1280 пикселей
Высота : 532 пикселя
Соотношение сторон : 2,40:1
Режим частоты кадров : Переменный
Цветовое пространство : YUV
Субдискретизация насыщенности : 4:2:0
Битовая глубина : 8 бит
Тип развёртки : Прогрессивная
Метод сжатия : С потерями
Библиотека кодирования : Lavc56.20.100
Default : Да
Forced : Нет

Аудио #1
Идентификатор : 2
Формат : AC-3
Формат/Информация : Audio Coding 3
Расширение режима : CM (complete main)
Параметр Endianness формата : Big
Идентификатор кодека : A_AC3
Продолжительность : 1 ч. 34 м.
Вид битрейта : Постоянный
Битрейт : 192 Кбит/сек
Каналы : 2 канала
Расположение каналов : Front: L R
Частота : 44,1 КГц
Битовая глубина : 16 бит
Метод сжатия : С потерями
Размер потока : 129 Мбайт (5%)
Default : Да
Forced : Нет

Аудио #2
Идентификатор : 3
Формат : AC-3
Формат/Информация : Audio Coding 3
Расширение режима : CM (complete main)
Параметр Endianness формата : Big
Идентификатор кодека : A_AC3
Продолжительность : 1 ч. 34 м.
Вид битрейта : Постоянный
Битрейт : 384 Кбит/сек
Каналы : 6 каналов
Расположение каналов : Front: L C R, Side: L R, LFE
Частота : 48,0 КГц
Битовая глубина : 16 бит
Метод сжатия : С потерями
Размер потока : 259 Мбайт (10%)
Default : Нет
Forced : Нет

Текст
Идентификатор : 4
Формат : UTF-8
Идентификатор кодека : S_TEXT/UTF8
Идентификатор кодека/Информация : UTF-8 Plain Text
Default : Да
Forced : Нет



_________________



реклама партнёра


Вернуться к началу
 Профиль Отправить личное сообщение  
 
   Похожие торренты   Автор   Торрент   Размер 
В этой теме нет новых непрочитанных сообщений. The Scintilla Project - The Hybrid [2014, Heavy Metal, Power Metal, MP3]

PriZraK

2 | 1

121.98 МБ

В этой теме нет новых непрочитанных сообщений. Искра / Scintilla [фантастика, 2014] WEB-DLRip, Avo

salma3

264 | 8

1.39 ГБ

В этой теме нет новых непрочитанных сообщений. Linkin Park - Hybrid Theory: Live At Download Festival 2014 [2014, Alternative Rock, MP3]

PriZraK

21 | 3

100.99 МБ

В этой теме нет новых непрочитанных сообщений. Bicoloured Men - Hybrid [2014, Heavy Metal, MP3]

PriZraK

2 | 1

78.35 МБ

В этой теме нет новых непрочитанных сообщений. Hybrid Wars [Action, 3D, 3rd Person, 2016] [RePack]

Sykre

4 | 4

3.83 ГБ

В этой теме нет новых непрочитанных сообщений. Foreigner - 4 (Limited Edition Hybrid SACD Remaster) [2013, Melodic Rock, MP3]

PriZraK

5 | 5

104.22 МБ

В этой теме нет новых непрочитанных сообщений. Я - Начало / I Origins [Фантастика, 2014] WEB-DL 720p. avo+sub

salma3

91 | 3

3.69 ГБ


Начать новую тему Ответить на тему  [ 1 сообщение ] 




Для Мосгорсуда, Роскомнадзора и рекламодателей:: mosgorsud-torrent[собачка]yandex.ru