Торрент файл
скачать торрент магнет ссылка Добавлен: 01 мар 2015, 12:17
Размер: 1.46 ГБ
Сидеров: 5
Личеров: 3
Статус: (salma3)
Автор

СообщениеДобавлено: 01 мар 2015, 12:17 

Не в сети
Зам. Админа
Аватара пользователя
Дата регистрации:
02 дек 2010, 12:39
Спасибо: 12652 / 214
Сообщения: 28010
Год выхода: 2014
Жанр: ужасы, фэнтези, триллер, детектив
Режиссер: Маурицио Черновецкий, Марк Девендорф
В ролях: Элинор Томлинсо, Стивен Ри, Эрика Марожан, Кэти Силверман, Жуль Уиллкокс, Юлия Петруха, Миклош Секей Б., Герда Пикали, Яцек Ленартович, Ласло Кадар

О фильме:
Действие фильма происходит в 1989 году. Лару исключают из школы, и её отец, доктор Хилл, вынужден взять дочь с собой в экспедицию в страны за железным занавесом. Они отправляются в разрушенный замок Карнштейн. Там они знакомятся с молодой девушкой Кармиллой. Лара привлечена Кармиллой, и вместе они бродят по развалинам замка и окрестным лесам. Тем временем таинственные силы просыпаются в замке и одолевают его обитателей. Местный генерал хочет уничтожить замок, место нечистой силы, и всех, кто там находится. Кармилла предлагает Ларе спасение, но для этого девушка должна пройти ужасное испытание.

  

Качество: WEB-DLRip [Рип с WEB-DL 720p]
Видео: XviD,720x400 , 23.976 fps,~1905 Kbit/s
Аудио: 48 kHz, AC3 Dolby Digital, 2/0 (L,R) ch, ~192 kbps
Продолжительность: 01:39:18
Перевод: Любительский (двухголосый) [DeadSno & den904]

Полное имя                               : E:ФИЛЬМЫShtirija.2014.L2.WEB-DLRip.avi
Формат                                   : AVI
Формат/Информация                        : Audio Video Interleave
Размер файла                             : 1,46 Гбайт
Продолжительность                        : 1 ч. 39 м.
Общий поток                              : 2106 Кбит/сек
Программа кодирования                    : VirtualDubMod 1.5.10.3 | http://www.virtualdub-fr.org || (build 2550/release)
Библиотека кодирования                   : VirtualDubMod build 2550/release

Видео
Идентификатор                            : 0
Формат                                   : MPEG-4 Visual
Профиль формата                          : Advanced Simple@L5
Параметр BVOP формата                    : 1
Параметр QPel формата                    : Нет
Параметр GMC формата                     : Без точки перехода
Параметр матрицы формата                 : Выборочная
Идентификатор кодека                     : XVID
Идентификатор кодека/Подсказка           : XviD
Продолжительность                        : 1 ч. 39 м.
Битрейт                                  : 1905 Кбит/сек
Ширина                                   : 720 пикселей
Высота                                   : 400 пикселей
Соотношение сторон                       : 16:9
Частота кадров                           : 23,976 кадра/сек
Цветовое пространство                    : YUV
Субдискретизация насыщенности            : 4:2:0
Битовая глубина                          : 8 бит
Тип развёртки                            : Прогрессивная
Метод сжатия                             : С потерями
Бит/(Пиксели*Кадры)                      : 0.276
Размер потока                            : 1,32 Гбайт (90%)
Библиотека кодирования                   : XviD 73

Аудио
Идентификатор                            : 1
Формат                                   : AC-3
Формат/Информация                        : Audio Coding 3
Расширение режима                        : CM (complete main)
Параметр Endianness формата              : Big
Идентификатор кодека                     : 2000
Продолжительность                        : 1 ч. 39 м.
Вид битрейта                             : Постоянный
Битрейт                                  : 192 Кбит/сек
Каналы                                   : 2 канала
Расположение каналов                     : Front: L R
Частота                                  : 48,0 КГц
Битовая глубина                          : 16 бит
Метод сжатия                             : С потерями
Размер потока                            : 136 Мбайт (9%)
Выравнивание                             : Разделение по промежуткам
Продолжительность промежутка             : 42  мс. (1,00 видеокадр)
Время предзагрузки промежутка            : 500  мс.













Вернуться к началу
 Профиль  
 
   Похожие торренты   Автор   Торрент   Размер 
В этой теме нет новых непрочитанных сообщений. Проклятие Спящей красавицы / The Curse of Sleeping Beauty [фэнтези, триллер, детектив, 2016] WEBDLRip, Dub

salma3

176 | 7

1.35 ГБ

В этой теме нет новых непрочитанных сообщений. Проклятие Спящей красавицы / The Curse of Sleeping Beauty [фэнтези, триллер, детектив, 2016] WEB-DL 1080p, Dub [Чистый Звук]

salma3

181 | 19

3.06 ГБ

В этой теме нет новых непрочитанных сообщений. Сверхъестественное / Supernatural [S12] [ужасы, фэнтези, триллер, драма, детектив, 2016] WEB-DLRip, Mvo [BaibaKo]

salma3

115 | 675

11.24 ГБ

В этой теме нет новых непрочитанных сообщений. Сверхъестественное / Supernatural [12x01-10 из 23] (Ужасы, фэнтези, триллер, драма, детектив, 2016) WEB-DLRip | КПК | LostFilm

marya111

51 | 124

1.87 ГБ

В этой теме нет новых непрочитанных сообщений. Сверхъестественное / Supernatural [12x01-09 из 23] (Ужасы, фэнтези, триллер, драма, детектив, 2016) WEB-DLRip 720p | IdeaFilm

marya111

10 | 91

11.98 ГБ

В этой теме нет новых непрочитанных сообщений. Сверхъестественное / Supernatural [12x01-08 из 23] (Ужасы, фэнтези, триллер, драма, детектив, 2016) WEB-DLRip 720p | IdeaFilm

marya111

24 | 76

10.61 ГБ

В этой теме нет новых непрочитанных сообщений. Незнакомец / The Stranger (Гильермо Амоедо) [Ужасы, Триллер, Драма, Детектив, 2014] WEB-DLRip, avo

Dracon

3 | 1

1.46 ГБ


Начать новую тему Ответить на тему  [ 1 сообщение ] 




Для Мосгорсуда, Роскомнадзора и рекламодателей:: mosgorsud-torrent[собачка]yandex.ru
cron