Торрент файл
скачать торрент магнет ссылка Добавлен: 28 фев 2015, 21:34
Размер: 1.37 ГБ
Сидеров: 6
Личеров: 4
Статус: (salma3)
Автор

СообщениеДобавлено: 28 фев 2015, 21:34 

Не в сети
Зам. Админа
Аватара пользователя
Дата регистрации:
02 дек 2010, 12:39
Спасибо: 12598 / 214
Сообщения: 28049
Год выхода: 2013
Жанр: триллер, драма
Режиссер: Фернандо Коимбра
В ролях: Талита Караута, Жулиану Казарре, Мильем Корташ, Леандра Леал, Фабиула Наскименту, Изабель Риббас, Антонио Саборио, Тамара Таксман, Карин Телес

О фильме:
Похищена шестилетняя девочка Кларинья. Родители девочки, Сильвия и Бернарду, и главная подозреваемая, дают противоречивые показания. Эта девушка — любовница Бернарду, с которой тот познакомился в поезде. Но по ходу действия выясняется, что и Сильвия отлично знает эту девушку, не имея при этом ни малейшего представления о ее связи с Бернарду. Для Сильвии, дружба с такой девушкой, настоящая отдушина. Способ выбраться из каждодневной рутины. А запылавший в ее душе огонь помог вновь разжечь страсть к мужу...


Качество: DVDRip
Видео: XviD, 1550 kb/s, 720x304, 25 fps
Аудио: AC3, 448 kb/s, 6 каналов, 48 KHz
Продолжительность: 01:37:30
Перевод: Любительский (одноголосый) [aka PashaUp]

Сэмпл
Формат                                   : AVI
Формат/Информация                        : Audio Video Interleave
Размер файла                             : 1,37 Гбайт
Продолжительность                        : 1 ч. 37 м.
Общий поток                              : 2007 Кбит/сек
Программа кодирования                    : VirtualDubMod 1.5.10.2 (build 2540/release)
Библиотека кодирования                   : VirtualDubMod build 2540/release

Видео
Идентификатор                            : 0
Формат                                   : MPEG-4 Visual
Профиль формата                          : Advanced Simple@L5
Параметр BVOP формата                    : 1
Параметр QPel формата                    : Нет
Параметр GMC формата                     : Без точки перехода
Параметр матрицы формата                 : Default (MPEG)
Идентификатор кодека                     : XVID
Идентификатор кодека/Подсказка           : XviD
Продолжительность                        : 1 ч. 37 м.
Битрейт                                  : 1550 Кбит/сек
Ширина                                   : 720 пикселей
Высота                                   : 304 пикселя
Соотношение сторон                       : 2,35:1
Частота кадров                           : 25,000 кадров/сек
Цветовое пространство                    : YUV
Субдискретизация насыщенности            : 4:2:0
Битовая глубина                          : 8 бит
Тип развёртки                            : Прогрессивная
Метод сжатия                             : С потерями
Бит/(Пиксели*Кадры)                      : 0.283
Размер потока                            : 1,06 Гбайт (77%)
Библиотека кодирования                   : XviD 1.2.1 (UTC 2008-12-04)

Аудио
Идентификатор                            : 1
Формат                                   : AC-3
Формат/Информация                        : Audio Coding 3
Расширение режима                        : CM (complete main)
Параметр Endianness формата              : Big
Идентификатор кодека                     : 2000
Продолжительность                        : 1 ч. 37 м.
Вид битрейта                             : Постоянный
Битрейт                                  : 448 Кбит/сек
Каналы                                   : 6 каналов
Расположение каналов                     : Front: L C R, Side: L R, LFE
Частота                                  : 48,0 КГц
Битовая глубина                          : 16 бит
Метод сжатия                             : С потерями
Размер потока                            : 312 Мбайт (22%)
Выравнивание                             : Разделение по промежуткам
Продолжительность промежутка             : 40  мс. (1,00 видеокадр)
Время предзагрузки промежутка            : 500  мс.








реклама партнёра


Вернуться к началу
 Профиль  
 
   Похожие торренты   Автор   Торрент   Размер 
В этой теме нет новых непрочитанных сообщений. Страх отпирает двери / Fear Is the Key [боевик, триллер, драма, криминал, 1972] DVDRip, Mvo

salma3

244 | 51

1.43 ГБ

В этой теме нет новых непрочитанных сообщений. Гнездо землеройки / Землеройка / Musaranas (Хуан Фернандо Андрес, Эстебан Роэль / Juanfer Andres, Esteban Roel) [2014г., Испания, триллер, драма, DVDRip] Sub

Alfredovich

1 | 0

1.38 ГБ

В этой теме нет новых непрочитанных сообщений. Злой серый волк  / Big Bad wolf (Пол Морелл) [Ужасы, триллер, 2013] HDRip, dvo

Dracon

4 | 4

1.37 ГБ

В этой теме нет новых непрочитанных сообщений. Волки у двери / Wolves at the Door [Ужасы, триллер, 2016] WEB-DLRip, Avo

salma3

637 | 192

1.31 ГБ

В этой теме нет новых непрочитанных сообщений. Волки у двери / Wolves at the Door [ужасы, триллер, 2016] WEB-DL 720p, Avo

salma3

152 | 23

2.48 ГБ

В этой теме нет новых непрочитанных сообщений. Волки у двери / Wolves at the Door [ужасы, триллер, 2016] WEB-DLRip-AVC, Avo

salma3

173 | 33

744.25 МБ

В этой теме нет новых непрочитанных сообщений. Воздушный волк / Небесный волк / Airwolf [S01-03] [Боевик, приключения, 1984-1986] BDRip, Mvo

salma3

17 | 26

40.42 ГБ


Начать новую тему Ответить на тему  [ 1 сообщение ] 




Для Мосгорсуда, Роскомнадзора и рекламодателей:: mosgorsud-torrent[собачка]yandex.ru