Торрент файл
скачать торрент магнет ссылка Добавлен: 26 фев 2015, 10:42
Размер: 1.37 ГБ
Сидеров: 29
Личеров: 3
Статус: (salma3)
Автор

СообщениеДобавлено: 26 фев 2015, 10:42 

Не в сети
Зам. Админа
Аватара пользователя
Дата регистрации:
02 дек 2010, 12:39
Спасибо: 12460 / 214
Сообщения: 27968
Год выхода: 2014
Жанр: Боевик, триллер, детектив
Режиссер: Адам Вингард
В ролях: Дэн Стивенс, Майка Монро, Брендан Мейер, Шейла Келли, Лиленд Орсер, Лэнс Реддик, Табата Шон, Чейз Уильямсон, Джоэл Мур, Стивен Браун

О фильме:
В семью, потерявшую на войне своего сына и брата, приезжает незнакомец. Он представляется сослуживцем погибшего и напрашивается погостить у них несколько дней, чтобы познакомиться поближе, а заодно рассказать о своей службе. Незнакомец очень приветлив и добр к каждому из членов семьи и при каждом удобном случае старается чем-то помочь. Однако вскоре эта помощь становится все более и более радикальной…


Качество: HDRip  [Рип с BDRip 720p]
Видео: XviD, 1555 kb/s, 720x304, 23.976 fps
Аудио:  AC3, 384 kb/s, 6 каналов, 48 KHz
Продолжительность: 01:40:24
Перевод: Дублированный [iTunes]

Сэмпл
Формат                                   : AVI
Формат/Информация                        : Audio Video Interleave
Размер файла                             : 1,37 Гбайт
Продолжительность                        : 1 ч. 40 м.
Общий поток                              : 1949 Кбит/сек
Программа кодирования                    : VirtualDubMod 1.5.10.2 (build 2540/release)
Библиотека кодирования                   : VirtualDubMod build 2540/release

Видео
Идентификатор                            : 0
Формат                                   : MPEG-4 Visual
Профиль формата                          : Advanced Simple@L5
Параметр BVOP формата                    : 2
Параметр QPel формата                    : Нет
Параметр GMC формата                     : Без точки перехода
Параметр матрицы формата                 : Default (MPEG)
Идентификатор кодека                     : XVID
Идентификатор кодека/Подсказка           : XviD
Продолжительность                        : 1 ч. 40 м.
Битрейт                                  : 1556 Кбит/сек
Ширина                                   : 720 пикселей
Высота                                   : 304 пикселя
Соотношение сторон                       : 2,35:1
Частота кадров                           : 23,976 кадра/сек
Цветовое пространство                    : YUV
Субдискретизация насыщенности            : 4:2:0
Битовая глубина                          : 8 бит
Тип развёртки                            : Прогрессивная
Метод сжатия                             : С потерями
Бит/(Пиксели*Кадры)                      : 0.296
Размер потока                            : 1,09 Гбайт (80%)
Библиотека кодирования                   : XviD 1.2.1 (UTC 2008-12-04)

Аудио
Идентификатор                            : 1
Формат                                   : AC-3
Формат/Информация                        : Audio Coding 3
Расширение режима                        : CM (complete main)
Параметр Endianness формата              : Big
Идентификатор кодека                     : 2000
Продолжительность                        : 1 ч. 40 м.
Вид битрейта                             : Постоянный
Битрейт                                  : 384 Кбит/сек
Каналы                                   : 6 каналов
Расположение каналов                     : Front: L C R, Side: L R, LFE
Частота                                  : 48,0 КГц
Битовая глубина                          : 16 бит
Метод сжатия                             : С потерями
Размер потока                            : 276 Мбайт (20%)
Выравнивание                             : Разделение по промежуткам
Продолжительность промежутка             : 42  мс. (1,00 видеокадр)
Время предзагрузки промежутка            : 500  мс.









реклама партнёра


Вернуться к началу
 Профиль  
 
   Похожие торренты   Автор   Торрент   Размер 
В этой теме нет новых непрочитанных сообщений. Гость / The Guest (Адам Вингард) [Боевик, триллер, детектив, 2014] HDRip, Dub [iTunes]

Dracon

5 | 3

700.73 МБ

В этой теме нет новых непрочитанных сообщений. Гость / The Guest (Адам Вингард) [Боевик, Триллер, Детектив, 2014] BDRip 720p, Dub [iTunes]

Dracon

35 | 4

4.64 ГБ

В этой теме нет новых непрочитанных сообщений. Гость / The Guest (Адам Вингард) [Боевик, триллер, детектив, 2014] BDRip 1080p, Dub [iTunes]+sub

Dracon

8 | 4

12.05 ГБ

В этой теме нет новых непрочитанных сообщений. Гость / The Guest [Боевик, триллер, детектив, 2014] HDRip, dvo

Dracon

80 | 2

1.36 ГБ

В этой теме нет новых непрочитанных сообщений. Гость / The Guest [Боевик, триллер, детектив, 2014] HDRip [Алексей Матвеев]

Dracon

6 | 2

1.46 ГБ

В этой теме нет новых непрочитанных сообщений. Гость / The Guest [Боевик, триллер, детектив, 2014] BDRip 1080p [Алексей Матвеев]+sub

Dracon

5 | 3

14.34 ГБ

В этой теме нет новых непрочитанных сообщений. Преследуемый / Persecuted (Дэниэл Луско) [Боевик, триллер, драма, детектив, 2014] HDRip, Mvo [iTunes]

Dracon

1 | 0

1.37 ГБ


Начать новую тему Ответить на тему  [ 1 сообщение ] 




Для Мосгорсуда, Роскомнадзора и рекламодателей:: mosgorsud-torrent[собачка]yandex.ru