Торрент файл
скачать торрент магнет ссылка Добавлен: 23 фев 2015, 11:26
Размер: 1.47 ГБ
Сидеров: 1
Личеров: 3
Статус: (salma3)
Автор

СообщениеДобавлено: 23 фев 2015, 11:26 

Не в сети
Зам. Админа
Аватара пользователя
Дата регистрации:
02 дек 2010, 12:39
Спасибо: 12656 / 214
Сообщения: 28010
Год выхода: 2014
Жанр: драма, биография, музыка
Режиссер: Тейт Тейлор
В ролях: Чэдвик Боузман, Нелсан Эллис, Дэн Эйкройд, Виола Дэвис, Октавия Спенсер, Кейт Робинсон, Ленни Джеймс, Крэйг Робинсон, Билли Слотер, Ричи Монтгомери

О фильме:
В основу фильма легла невероятная история жизни кумира миллионов, иконы сцены — Джеймса Брауна. Его боготворили не только фанаты, но и музыканты. Он был легендой эпохи — его имя одним из первых включили в Зал славы рок-н-ролла.

Качество: HDRip
Видео: XviD, 1118 Kb/s, 720x384, 23.976 fps
Аудио: AC3, 384 kb/s, 6 каналов, 48 KHz
Продолжительность: 02:18:50
Перевод: Дублированный [iTunes]

Сэмпл
Формат                                   : AVI
Формат/Информация                        : Audio Video Interleave
Размер файла                             : 1,47 Гбайт
Продолжительность                        : 2 ч. 18 м.
Общий поток                              : 1511 Кбит/сек
Программа кодирования                    : VirtualDubMod 1.5.10.2 (build 2540/release)
Библиотека кодирования                   : VirtualDubMod build 2540/release

Видео
Идентификатор                            : 0
Формат                                   : MPEG-4 Visual
Профиль формата                          : Advanced Simple@L5
Параметр BVOP формата                    : 2
Параметр QPel формата                    : Нет
Параметр GMC формата                     : Без точки перехода
Параметр матрицы формата                 : Default (MPEG)
Идентификатор кодека                     : XVID
Идентификатор кодека/Подсказка           : XviD
Продолжительность                        : 2 ч. 18 м.
Битрейт                                  : 1118 Кбит/сек
Ширина                                   : 720 пикселей
Высота                                   : 384 пикселя
Соотношение сторон                       : 1,85:1
Частота кадров                           : 23,976 кадра/сек
Цветовое пространство                    : YUV
Субдискретизация насыщенности            : 4:2:0
Битовая глубина                          : 8 бит
Тип развёртки                            : Прогрессивная
Метод сжатия                             : С потерями
Бит/(Пиксели*Кадры)                      : 0.169
Размер потока                            : 1,08 Гбайт (74%)
Библиотека кодирования                   : XviD 1.2.1 (UTC 2008-12-04)

Аудио
Идентификатор                            : 1
Формат                                   : AC-3
Формат/Информация                        : Audio Coding 3
Расширение режима                        : CM (complete main)
Параметр Endianness формата              : Big
Идентификатор кодека                     : 2000
Продолжительность                        : 2 ч. 18 м.
Вид битрейта                             : Постоянный
Битрейт                                  : 384 Кбит/сек
Каналы                                   : 6 каналов
Расположение каналов                     : Front: L C R, Side: L R, LFE
Частота                                  : 48,0 КГц
Битовая глубина                          : 16 бит
Метод сжатия                             : С потерями
Размер потока                            : 381 Мбайт (25%)
Выравнивание                             : Разделение по промежуткам
Продолжительность промежутка             : 42  мс. (1,00 видеокадр)
Время предзагрузки промежутка            : 500  мс.








Вернуться к началу
 Профиль  
 
   Похожие торренты   Автор   Торрент   Размер 
В этой теме нет новых непрочитанных сообщений. Танцовщица / La danseuse (драма, биография, музыка, 2016) HDRip-AVC | iTunes

marya111

75 | 15

742.27 МБ

В этой теме нет новых непрочитанных сообщений. Лето [Биография, музыка, драма, 2018] WEB-DLRip [iTunes]

salma3

1023 | 40

1.46 ГБ

В этой теме нет новых непрочитанных сообщений. Жертвуя пешкой / Pawn Sacrifice (Эдвард Цвик) [драма, биография, 2014] HDRip, Dub [Itunes]

Dracon

1940 | 107

2.18 ГБ

В этой теме нет новых непрочитанных сообщений. Жертвуя пешкой / Pawn Sacrifice (Эдвард Цвик) [драма, биография, 2014] HDRip, Dub [Itunes]

Dracon

8359 | 355

1.45 ГБ

В этой теме нет новых непрочитанных сообщений. Танцовщица / La danseuse ( драма, биография, музыка, 2016) BDRip | iTunes

marya111

44 | 4

2.03 ГБ

В этой теме нет новых непрочитанных сообщений. Танцовщица / La danseuse ( драма, биография, музыка, 2016) BDRip 1080p | iTunes

marya111

150 | 29

8.24 ГБ

В этой теме нет новых непрочитанных сообщений. Голос улиц / Straight Outta Compton (Ф. Гэри Грей) [драма, биография, музыка, 2015] BDRip 720p, Dub [iTunes | Theatrical Cut]

Dracon

5167 | 283

3.7 ГБ


Начать новую тему Ответить на тему  [ 1 сообщение ] 




Для Мосгорсуда, Роскомнадзора и рекламодателей:: mosgorsud-torrent[собачка]yandex.ru
cron