Торрент файл
скачать торрент магнет ссылка Добавлен: 22 фев 2015, 13:38
Размер: 1.46 ГБ
Сидеров: 33
Личеров: 2
Статус: (salma3)
Автор

СообщениеДобавлено: 22 фев 2015, 13:38 

Не в сети
Супермодератор
Аватара пользователя
Дата регистрации:
15 фев 2012, 16:44
Возраст: 27
Спасибо: 5139 / 2089
Сообщения: 17411
Супербратья Марио / Super Mario Bros.

Год выхода: 1993
Жанр: Фантастика, боевик, триллер
Режиссер: Аннабел Джэнкел, Рокки Мортон, Роланд Жоффе, Дин Семлер

В ролях: Боб Хоскинс, Джон Легуизамо, Дэннис Хоппер, Саманта Мэтис, Фишер Стивенс, Ричард Эдсон, Фиона Шоу, Дэна Камински, Джанни Руссо

О фильме:
Два брата-водопроводчика из Бруклина, Марио Марио и Луиджи Марио, случайно обнаружили совершенно новое измерение. Это подземный мир, в котором правит жестокий тиран Купа, город, населенный людьми-ящерицами, прямыми потомками динозавров.Они жаждут освободиться из подземного плена и под предводительством Купы захватить всю Землю. Ключ к победе хранится в осколке хрустального метеорита, который как драгоценный амулет носит на шее прекрасная юная принцесса Дэйзи. Спасая принцессу, супербратья Марио должны заодно спасти и человеческую цивилизацию…\



Страна: США, Великобритания
Продолжительность: 01:44:42
Перевод: Профессиональный [многоголосый] [R5]

Файл
Качество: HDRip
Формат файла: AVI
Видео кодек: XviD
Аудио кодек: AC3
Видео: 704x384, 24,000 fps, 1546 kbps
Звук: AC3, 6 ch, 448 kbps, 48.0 khz


Общее
Полное имя : Superbratya.Mario.1993.HDRip.avi
Формат : AVI
Формат/Информация : Audio Video Interleave
Размер файла : 1,46 Гбайт
Продолжительность : 1 ч. 44 м.
Общий поток : 2003 Кбит/сек
Программа кодирования : VirtualDubMod 1.5.10.3 | http://www.virtualdub-fr.org || (build 2550/release)
Библиотека кодирования : VirtualDubMod build 2550/release

Видео
Идентификатор : 0
Формат : MPEG-4 Visual
Профиль формата : Advanced Simple@L5
Параметр BVOP формата : 1
Параметр QPel формата : Нет
Параметр GMC формата : Без точки перехода
Параметр матрицы формата : Выборочная
Идентификатор кодека : XVID
Идентификатор кодека/Подсказка : XviD
Продолжительность : 1 ч. 44 м.
Битрейт : 1546 Кбит/сек
Ширина : 704 пикс.
Высота : 384 пикс.
Соотношение сторон : 16:9
Частота кадров : 24,000 кадр/сек
Цветовое пространство : YUV
Подвыборка цветности : 4:2:0
Битовая глубина : 8 бит
Тип развёртки : Прогрессивная
Метод сжатия : С потерями
Бит/(Пиксели*Кадры) : 0.238
Размер потока : 1,13 Гбайт (77%)
Библиотека кодирования : XviD 73

Аудио
Идентификатор : 1
Формат : AC-3
Формат/Информация : Audio Coding 3
Расширение режима : CM (complete main)
Идентификатор кодека : 2000
Продолжительность : 1 ч. 44 м.
Вид битрейта : Постоянный
Битрейт : 448 Кбит/сек
Канал(ы) : 6 канала(ов)
Расположение каналов : Front: L C R, Side: L R, LFE
Частота : 48,0 КГц
Битовая глубина : 16 бит
Метод сжатия : С потерями
Размер потока : 335 Мбайт (22%)
Выравнивание : Разделение по промежуткам
Продолжительность промежутка : 42 мс. (1,00 видеокадр)
Время предзагрузки промежутка : 500 ms


Релиз от: Leon-masl


_________________



реклама партнёра


Вернуться к началу
 Профиль Отправить личное сообщение  
 
   Похожие торренты   Автор   Торрент   Размер 
В этой теме нет новых непрочитанных сообщений. Super Mario Bros Nostalgia [Arcade, 2016] [Лицензия]

Tobus

65 | 32

65.68 МБ

В этой теме нет новых непрочитанных сообщений. Super Mario Top [Arcade, 2014] [Лицензия]

DBCooper

176 | 11

72.24 МБ

В этой теме нет новых непрочитанных сообщений. Super Mario - Collection [Arcade, 2015] [Лицензия]

Tobus

1 | 1

92.28 МБ

В этой теме нет новых непрочитанных сообщений. Super Mario Adventures [Arcade, 2014] [Лицензия]

DBCooper

86 | 6

91.02 МБ

В этой теме нет новых непрочитанных сообщений. Super Mario Remake [Arcade, 2014] [Лицензия]

Tobus

1 | 2

6.73 МБ

В этой теме нет новых непрочитанных сообщений. Super Mario Pack [Arcade, 2014] [Лицензия]

DBCooper

3 | 3

41.28 МБ

В этой теме нет новых непрочитанных сообщений. Super Mario Forever [Arcade, 2014] [Лицензия]

DBCooper

51 | 6

78.86 МБ


Начать новую тему Ответить на тему  [ 1 сообщение ] 




Для Мосгорсуда, Роскомнадзора и рекламодателей:: mosgorsud-torrent[собачка]yandex.ru