Торрент файл
скачать торрент магнет ссылка Добавлен: 18 фев 2015, 20:42
Размер: 1.44 ГБ
Сидеров: 4
Личеров: 3
Статус: (salma3)
Автор

СообщениеДобавлено: 18 фев 2015, 20:42 

Не в сети
Зам. Админа
Аватара пользователя
Дата регистрации:
02 дек 2010, 12:39
Спасибо: 12460 / 214
Сообщения: 27968
Год выхода: 2014
Жанр: ужасы, триллер
Режиссер: Оливер Блэкберн
В ролях: Эшли Грин, Лукас Тилл, Хейли Беннетт, Джеймс Рэнсон, Крис Кой, Мэтью Ст. Патрик, Челси Брюленд, Джон Л. Армихо, Дэвид Дженсен, Уэйн Пер

О фильме:
Оставшись в одиночестве в кампусе на время празднования Дня Благодарения, студентка вынуждена сражаться с бандой бродяг. Ей предстоит побороть страхи, проявить все свои хитрость и смекалку, чтобы отразить нападение.

Качество: HDRip
Видео: XviD, 1697 kb/s, 720х304, 23.976 fps
Аудио:
Russian: AC3, 448 kb/s, 6 каналов, 48 KHz
German: AC3, 256 kb/s, 6 каналов, 48 KHz
Продолжительность: 01:25:26
Перевод: Любительский (двухголосый) [DeadSno & den904]

Сэмпл

Формат                                   : AVI
Формат/Информация                        : Audio Video Interleave
Размер файла                             : 1,44 Гбайт
Продолжительность                        : 1 ч. 25 м.
Общий поток                              : 2415 Кбит/сек
Программа кодирования                    : VirtualDubMod 1.5.10.2 (build 2540/release)
Библиотека кодирования                   : VirtualDubMod build 2540/release

Видео
Идентификатор                            : 0
Формат                                   : MPEG-4 Visual
Профиль формата                          : Advanced Simple@L5
Параметр BVOP формата                    : 1
Параметр QPel формата                    : Нет
Параметр GMC формата                     : Без точки перехода
Параметр матрицы формата                 : Default (H.263)
Идентификатор кодека                     : XVID
Идентификатор кодека/Подсказка           : XviD
Продолжительность                        : 1 ч. 25 м.
Битрейт                                  : 1697 Кбит/сек
Ширина                                   : 720 пикселей
Высота                                   : 304 пикселя
Соотношение сторон                       : 2,35:1
Частота кадров                           : 23,976 кадра/сек
Цветовое пространство                    : YUV
Субдискретизация насыщенности            : 4:2:0
Битовая глубина                          : 8 бит
Тип развёртки                            : Прогрессивная
Метод сжатия                             : С потерями
Бит/(Пиксели*Кадры)                      : 0.323
Размер потока                            : 1,01 Гбайт (70%)
Библиотека кодирования                   : XviD 73

Аудио #1
Идентификатор                            : 1
Формат                                   : AC-3
Формат/Информация                        : Audio Coding 3
Расширение режима                        : CM (complete main)
Параметр Endianness формата              : Big
Идентификатор кодека                     : 2000
Продолжительность                        : 1 ч. 25 м.
Вид битрейта                             : Постоянный
Битрейт                                  : 448 Кбит/сек
Каналы                                   : 6 каналов
Расположение каналов                     : Front: L C R, Side: L R, LFE
Частота                                  : 48,0 КГц
Битовая глубина                          : 16 бит
Метод сжатия                             : С потерями
Размер потока                            : 274 Мбайт (19%)
Выравнивание                             : Разделение по промежуткам
Продолжительность промежутка             : 42  мс. (1,00 видеокадр)
Время предзагрузки промежутка            : 500  мс.

Аудио #2
Идентификатор                            : 2
Формат                                   : AC-3
Формат/Информация                        : Audio Coding 3
Расширение режима                        : CM (complete main)
Параметр Endianness формата              : Big
Идентификатор кодека                     : 2000
Продолжительность                        : 1 ч. 25 м.
Вид битрейта                             : Постоянный
Битрейт                                  : 256 Кбит/сек
Каналы                                   : 6 каналов
Расположение каналов                     : Front: L C R, Side: L R, LFE
Частота                                  : 48,0 КГц
Битовая глубина                          : 16 бит
Метод сжатия                             : С потерями
Размер потока                            : 156 Мбайт (11%)
Выравнивание                             : Разделение по промежуткам
Продолжительность промежутка             : 42  мс. (1,00 видеокадр)
Время предзагрузки промежутка            : 500  мс.









реклама партнёра


Вернуться к началу
 Профиль  
 
   Похожие торренты   Автор   Торрент   Размер 
В этой теме нет новых непрочитанных сообщений. Кристи / Случайные / Kristy / Random (Оливер Блэкберн) [2014, ужасы, HDRip] avo

Nickolas3435

1459 | 60

1.19 ГБ

В этой теме нет новых непрочитанных сообщений. Кристи / Kristy (Оливер Блэкберн) [ужасы, триллер, 2014] BDRip 1080p, dvo+Sub

salma3

134 | 3

5.27 ГБ

В этой теме нет новых непрочитанных сообщений. Клей / Glue [s01] (Дэниэл Неттхейм, Оливер Блэкберн, Кэти Брэйди) [2014, детектив, драма, триллер, PDTVRip | Hamster]

Nickolas3435

43 | 3

3.63 ГБ

В этой теме нет новых непрочитанных сообщений. Блэкберн / Blackburn [Ужасы, 2015] HDRip, Avo

salma3

114 | 5

738.09 МБ

В этой теме нет новых непрочитанных сообщений. [GirlsDoPorn.com] Kristy Althaus (Episode 266 - 18 Years Old Girl/14.06.2014 г.) [All Sex, Hardcore, Legal Teens, Amateur Girls, SiteRip, 404p]

Dile-1

0 | 3

390.68 МБ

В этой теме нет новых непрочитанных сообщений. Из темноты / Out of the Dark [Ужасы, триллер, 2014] HDRip-AVC, Dvo

salma3

209 | 7

1.45 ГБ

В этой теме нет новых непрочитанных сообщений. Операция «Мертвый снег» 2 / Død Snø 2 [ужасы, триллер, 2014] HDRip, dvo

Dracon

240 | 3

1.37 ГБ


Начать новую тему Ответить на тему  [ 1 сообщение ] 




Для Мосгорсуда, Роскомнадзора и рекламодателей:: mosgorsud-torrent[собачка]yandex.ru