Торрент файл
скачать торрент магнет ссылка Добавлен: 18 фев 2015, 11:15
Размер: 2.84 ГБ
Сидеров: 3
Личеров: 3
Статус: (salma3)
Автор

СообщениеДобавлено: 18 фев 2015, 11:15 

Не в сети
Зам. Админа
Аватара пользователя
Дата регистрации:
02 дек 2010, 12:39
Спасибо: 12460 / 214
Сообщения: 27968
Год выхода: 2013
Жанр: Боевик,Триллер,Драма,Криминал,История
Режиссер: Ли Сан Иль
В ролях: Кен Ватанабэ, Дзюн Кунимура, Сиори Куцуна, Юя Ягира, Коити Сато, Эйко Койке...

О фильме:
Ремейк фильма Клинта Иствуда 1992 г. События происходят в Хоккайдо, Япония, в 1880-х годах. Дзюбэй Камата, который поддерживает сторону правительства сегуната Эдо, убивает многих людей. Его имя печально известно в Киото. Но, когда битва при Горьокаку должна вот-вот закончиться, Дзюбэй исчезает. 10 лет спустя Дзюбэй живет со своими детьми. Он едва сводит концы с концами. Его жена умерла, и он решил никогда больше не браться за меч, но нищета не оставляет ему выбора…


Качество: HDRip
Видео: XviD, 720х304, 23,976 fps, ~1890 Kbit/s
Аудио 1: Русский: АС3, 48000 Hz, 6 каналов, 448 kbit/s - [Nosferatu13fd]
Аудио 2: Русский: АС3, 48000 Hz, 2 канала, 192 kbit/s - [BadCatStudio]
Аудио 3: Японский: АС3, 48000 Hz, 6 каналов, 448 kbit/s
Субтитры: Русские, Английские [SRT] (внешние)
Продолжительность: 02:15:45
Перевод: Любительский (одноголосый)
Общее
Полное имя : D:ТОРРЕНТЫUnforgiven.2013.HDRip.XviD.2900MBUnforgiven.2013.HDRip.XviD.2900MB..avi
Формат : AVI
Формат/Информация : Audio Video Interleave
Профиль формата : OpenDML
Размер файла : 2,84 Гбайт
Продолжительность : 2 ч. 15 м.
Общий поток : 2999 Кбит/сек
Программа кодирования : VirtualDubMod 1.5.10.2 (build 2540/release)
Библиотека кодирования : VirtualDubMod build 2540/release

Видео
Идентификатор : 0
Формат : MPEG-4 Visual
Профиль формата : Advanced Simple@L5
Параметр BVOP формата : 1
Параметр QPel формата : Нет
Параметр GMC формата : Без точки перехода
Параметр матрицы формата : Default (MPEG)
Идентификатор кодека : XVID
Идентификатор кодека/Подсказка : XviD
Продолжительность : 2 ч. 15 м.
Битрейт : 1890 Кбит/сек
Ширина : 720 пикселей
Высота : 304 пикселя
Соотношение сторон : 2,35:1
Частота кадров : 23,976 кадра/сек
Цветовое пространство : YUV
Субдискретизация насыщенности : 4:2:0
Битовая глубина : 8 бит
Тип развёртки : Прогрессивная
Метод сжатия : С потерями
Бит/(Пиксели*Кадры) : 0.360
Размер потока : 1,79 Гбайт (63%)
Библиотека кодирования : XviD 1.2.1 (UTC 2008-12-04)

Аудио #1
Идентификатор : 1
Формат : AC-3
Формат/Информация : Audio Coding 3
Расширение режима : CM (complete main)
Параметр Endianness формата : Big
Идентификатор кодека : 2000
Продолжительность : 2 ч. 15 м.
Вид битрейта : Постоянный
Битрейт : 448 Кбит/сек
Каналы : 6 каналов
Расположение каналов : Front: L C R, Side: L R, LFE
Частота : 48,0 КГц
Битовая глубина : 16 бит
Метод сжатия : С потерями
Размер потока : 435 Мбайт (15%)
Выравнивание : Разделение по промежуткам
Продолжительность промежутка : 42 мс. (1,00 видеокадр)
Время предзагрузки промежутка : 500 мс.

Аудио #2
Идентификатор : 2
Формат : AC-3
Формат/Информация : Audio Coding 3
Расширение режима : CM (complete main)
Параметр Endianness формата : Big
Идентификатор кодека : 2000
Продолжительность : 2 ч. 15 м.
Вид битрейта : Постоянный
Битрейт : 192 Кбит/сек
Каналы : 2 канала
Расположение каналов : Front: L R
Частота : 48,0 КГц
Битовая глубина : 16 бит
Метод сжатия : С потерями
Размер потока : 186 Мбайт (6%)
Выравнивание : Разделение по промежуткам
Продолжительность промежутка : 42 мс. (1,00 видеокадр)
Время предзагрузки промежутка : 500 мс.

Аудио #3
Идентификатор : 3
Формат : AC-3
Формат/Информация : Audio Coding 3
Расширение режима : CM (complete main)
Параметр Endianness формата : Big
Идентификатор кодека : 2000
Продолжительность : 2 ч. 15 м.
Вид битрейта : Постоянный
Битрейт : 448 Кбит/сек
Каналы : 6 каналов
Расположение каналов : Front: L C R, Side: L R, LFE
Частота : 48,0 КГц
Битовая глубина : 16 бит
Метод сжатия : С потерями
Размер потока : 435 Мбайт (15%)
Выравнивание : Разделение по промежуткам
Продолжительность промежутка : 42 мс. (1,00 видеокадр)
Время предзагрузки промежутка : 500 мс.








реклама партнёра


Вернуться к началу
 Профиль  
 
   Похожие торренты   Автор   Торрент   Размер 
В этой теме нет новых непрочитанных сообщений. Полицейская история 2014 / Jing Cha Gu Shi 2013 [боевик, триллер, драма, криминал, 2013] HDRip, Avo [C. Визгунов]

salma3

133 | 6

1.37 ГБ

В этой теме нет новых непрочитанных сообщений. Полицейская история 2014 / Jing Cha Gu Shi 2013 [боевик, триллер, драма, криминал, 2013] HDTV 720p, Dvo+Sub

salma3

196 | 6

1.95 ГБ

В этой теме нет новых непрочитанных сообщений. Мадрас-кафе / Madras Cafe [боевик, триллер, драма, военный, история, 2013] HDRip, Mvo+Sub

salma3

8 | 3

2.17 ГБ

В этой теме нет новых непрочитанных сообщений. Саботаж / Sabotage [боевик, триллер, драма, криминал, 2013] HDRip, Avo [Гаврилов[]

salma3

134 | 9

2.03 ГБ

В этой теме нет новых непрочитанных сообщений. Ничья земля / Wu ren qu [триллер, криминал, боевик, приключения, драма, вестерн, 2013] HDRip, Dvo+Sub

salma3

38 | 2

1.46 ГБ

В этой теме нет новых непрочитанных сообщений. Убийство Кеннеди / Killing Kennedy [Драма, история, реставрация, криминал, 2013] HDRip, Avo

Dracon

52 | 3

1.36 ГБ

В этой теме нет новых непрочитанных сообщений. Пылающий остров / Java Heat [боевик, триллер, драма, криминал, 2013] HDRip, Dub [студия "Пифагор"]

Dracon

1 | 4

1.46 ГБ


Начать новую тему Ответить на тему  [ 1 сообщение ] 




Для Мосгорсуда, Роскомнадзора и рекламодателей:: mosgorsud-torrent[собачка]yandex.ru