Торрент файл
скачать торрент магнет ссылка Добавлен: 18 фев 2015, 11:10
Размер: 1.46 ГБ
Сидеров: 14
Личеров: 3
Статус: (salma3)
Автор

СообщениеДобавлено: 18 фев 2015, 11:10 

Не в сети
Зам. Админа
Аватара пользователя
Дата регистрации:
02 дек 2010, 12:39
Спасибо: 12461 / 214
Сообщения: 27968
Год выхода: 2014
Жанр: боевик, криминал, триллер
Режиссер: Альберто Родригес
В ролях: Хавьер Гутьеррес, Рауль Аревало, Нереа Баррос, Адельфа Калво, Хесус Карроса, Хесус Кастро

О фильме:
1980 год. Хуан и Педро — двое полицейских отдела по расследованию убийств Мадрида, идеологические противники — после получения выговоров в наказание должны перебраться в отдаленные и забытые людьми болота Гвадалквивир, чтобы расследовать исчезновение и жестокое убийство двух девочек-подростков во время празднования местного праздника. Вместе они должны преодолеть свои разногласия и найти и противостоять жестокому убийце…

Качество: HDRip
Видео: XviD, 1803 kb/s, 720x304, 23.976 fps
Аудио: AC3, 192 kb/s, 2 канала, 48 KHz
Продолжительность: 01:44:17
Перевод: Любительский (двухголосый) [DeadSno & den904]

Сэмпл

Формат                                   : AVI
Формат/Информация                        : Audio Video Interleave
Размер файла                             : 1,46 Гбайт
Продолжительность                        : 1 ч. 44 м.
Общий поток                              : 2005 Кбит/сек
Программа кодирования                    : VirtualDubMod 1.5.10.2 (build 2540/release)
Библиотека кодирования                   : VirtualDubMod build 2540/release

Видео
Идентификатор                            : 0
Формат                                   : MPEG-4 Visual
Профиль формата                          : Advanced Simple@L5
Параметр BVOP формата                    : 2
Параметр QPel формата                    : Нет
Параметр GMC формата                     : Без точки перехода
Параметр матрицы формата                 : Выборочная
Идентификатор кодека                     : XVID
Идентификатор кодека/Подсказка           : XviD
Продолжительность                        : 1 ч. 44 м.
Битрейт                                  : 1804 Кбит/сек
Ширина                                   : 720 пикселей
Высота                                   : 304 пикселя
Соотношение сторон                       : 2,35:1
Частота кадров                           : 23,976 кадра/сек
Цветовое пространство                    : YUV
Субдискретизация насыщенности            : 4:2:0
Битовая глубина                          : 8 бит
Тип развёртки                            : Прогрессивная
Метод сжатия                             : С потерями
Бит/(Пиксели*Кадры)                      : 0.344
Размер потока                            : 1,31 Гбайт (90%)
Библиотека кодирования                   : XviD 1.2.1 (UTC 2008-12-04)

Аудио
Идентификатор                            : 1
Формат                                   : AC-3
Формат/Информация                        : Audio Coding 3
Расширение режима                        : CM (complete main)
Параметр Endianness формата              : Big
Идентификатор кодека                     : 2000
Продолжительность                        : 1 ч. 44 м.
Вид битрейта                             : Постоянный
Битрейт                                  : 192 Кбит/сек
Каналы                                   : 2 канала
Расположение каналов                     : Front: L R
Частота                                  : 48,0 КГц
Битовая глубина                          : 16 бит
Метод сжатия                             : С потерями
Размер потока                            : 143 Мбайт (10%)
Выравнивание                             : Разделение по промежуткам
Продолжительность промежутка             : 42  мс. (1,00 видеокадр)
Время предзагрузки промежутка            : 500  мс.









реклама партнёра


Вернуться к началу
 Профиль  
 
   Похожие торренты   Автор   Торрент   Размер 
В этой теме нет новых непрочитанных сообщений. Город грехов 2: Женщина, ради которой стоит убивать / Sin City: A Dame to Kill For (Фрэнк Миллер, Роберт Родригес) [2014, боевик, триллер, криминал, HDRip | Лицезия] Dub

Dracon

3626 | 102

1.46 ГБ

В этой теме нет новых непрочитанных сообщений. Пылающий остров / Java Heat [боевик, триллер, драма, криминал, 2013] HDRip, Dub [студия "Пифагор"]

Dracon

1 | 4

1.46 ГБ

В этой теме нет новых непрочитанных сообщений. Пылающий остров / Зной Явы / Java Heat [боевик, триллер, драма, криминал, 2013] BDRip 1080p, Dub+Avo+Sub

salma3

21 | 4

8.63 ГБ

В этой теме нет новых непрочитанных сообщений. Токарев / Tokarev [боевик, триллер, криминал, 2014] HDRip, Dvo

Dracon

1924 | 43

1.46 ГБ

В этой теме нет новых непрочитанных сообщений. Токарев / Tokarev [боевик, триллер, криминал, 2014] HDRip, avo

Dracon

1371 | 29

1.37 ГБ

В этой теме нет новых непрочитанных сообщений. Токарев / Tokarev [боевик, триллер, криминал, 2014] HDRip, avo

Kochesov

214 | 3

1.37 ГБ

В этой теме нет новых непрочитанных сообщений. Монтана/ Montana [боевик, триллер, драма, криминал, 2014] HDRip, avo

Dracon

1601 | 68

1.51 ГБ


Начать новую тему Ответить на тему  [ 1 сообщение ] 




Для Мосгорсуда, Роскомнадзора и рекламодателей:: mosgorsud-torrent[собачка]yandex.ru