Торрент файл
скачать торрент магнет ссылка Добавлен: 15 фев 2015, 22:04
Размер: 1.46 ГБ
Сидеров: 6
Личеров: 5
Статус: (salma3)
Автор

СообщениеДобавлено: 15 фев 2015, 22:04 

Не в сети
Супермодератор
Аватара пользователя
Дата регистрации:
15 фев 2012, 16:44
Возраст: 27
Спасибо: 5135 / 2089
Сообщения: 17409
Тварь Питера Бенчли / Peter Benchley's Creature

Год выпуска: 1998
Жанр: ужасы, фантастика, триллер
Режиссер: Стюарт Гиллард /Stuart Gillard

В ролях: Крэйг Т. Нелсон, Ким Кэттролл, Колм Фиори, Кресс Уильямс, Майкл Райлли Берк , Майкл Мишель, Мэттью Кэри, Мегалин Эхикунвоке, Блу Манкума, Джон Эйлуорд, Джанкарло Эспозито

Описание:
В конце 60-х годов безумный профессор-генетик Крюгер задумал вывести двуногую акулу с инстинктом убийцы и разумом человека. Он сам стал первой жертвой своих экспериментов. Прошло 30 лет, и в мирную жизнь тихого острова в Карибском море ворвалось ужасное, никогда не виданное чудовище, наводя страх на все живое. Унаследовавшие лабораторию Крюгера молодые биологи Саймон и Аманда Чэйз должны остановить кровожадную «тварь»



Страна: США, Канада
Продолжительность: 02:48:15
Перевод: Профессиональный (многоголосый закадровый)

Файл
Качество: DVDRip
Формат файла: AVI
Видео кодек: XviD
Аудио кодек: AC3
Видео: 576x432 (1.33:1), 25 fps, XviD build 50 ~1107 kbps avg, 0.18 bit/pixel
Аудио: 48 kHz, MPEG Layer 3, 2 ch, ~128.00 kbps avg

Спасибо zim2001 за предоставленный релиз!


Общее
Полное имя : E:\video\Creature.avi
Формат : AVI
Формат/Информация : Audio Video Interleave
Размер файла : 1,46 Гбайт
Продолжительность : 2 ч. 48 м.
Общий поток : 1246 Кбит/сек
Режиссёр : zim2001
Программа кодирования : VirtualDubMod 1.5.10.2 (build 2540/release)

Видео
Идентификатор : 0
Формат : MPEG-4 Visual
Профиль формата : Advanced Simple@L5
Параметр BVOP формата : 2
Параметр QPel формата : Нет
Параметр GMC формата : Без точки перехода
Параметр матрицы формата : Default (H.263)
Идентификатор кодека : XVID
Идентификатор кодека/Подсказка : XviD
Продолжительность : 2 ч. 48 м.
Битрейт : 1108 Кбит/сек
Ширина : 576 пикселей
Высота : 432 пикселя
Соотношение сторон : 4:3
Частота кадров : 25,000 кадров/сек
Цветовое пространство : YUV
Субдискретизация насыщенности : 4:2:0
Битовая глубина : 8 бит
Тип развёртки : Прогрессивная
Метод сжатия : С потерями
Бит/(Пиксели*Кадры) : 0.178
Размер потока : 1,30 Гбайт (89%)
Библиотека кодирования : XviD 1.2.1 (UTC 2008-12-04)

Аудио
Идентификатор : 1
Формат : MPEG Audio
Версия формата : Version 1
Профиль формата : Layer 3
Идентификатор кодека : 55
Идентификатор кодека/Подсказка : MP3
Продолжительность : 2 ч. 48 м.
Вид битрейта : Постоянный
Битрейт : 128 Кбит/сек
Каналы : 2 канала
Частота : 48,0 КГц
Метод сжатия : С потерями
Размер потока : 154 Мбайт (10%)
Выравнивание : Соединение по промежуткам
Продолжительность промежутка : 40 мс. (1,00 видеокадр)
Время предзагрузки промежутка : 504 мс.
Библиотека кодирования : LAME3.97
Настройки программы : -m s -V 4 -q 2 -lowpass 17 -b 128




_________________



реклама партнёра


Вернуться к началу
 Профиль Отправить личное сообщение  
 
   Похожие торренты   Автор   Торрент   Размер 
В этой теме нет новых непрочитанных сообщений. Тварь / Alien Lockdown / Creature [Фантастика, боевик, триллер, 2004] DVDRip, Dvo

salma3

12 | 2

1.45 ГБ

В этой теме нет новых непрочитанных сообщений. Тварь из бездны / The Thing Below [Ужасы, фантастика, триллер, 2004] DVDRip, Mvo

salma3

99 | 19

1.37 ГБ

В этой теме нет новых непрочитанных сообщений. Существо / Creature [Ужасы, триллер, 2014] DVDRip, Dvo

salma3

3 | 2

1.46 ГБ

В этой теме нет новых непрочитанных сообщений. Существо / Creature [ужасы, фантастика, 2014] WEBRip-AVC, Dvo

salma3

22 | 5

1.08 ГБ

В этой теме нет новых непрочитанных сообщений. Друзья Питера / Peter's Friends [Комедия, Драма, 1992] HDTVRip 720p, 2Mvo+2Avo+Sub

salma3

4 | 6

4.72 ГБ

В этой теме нет новых непрочитанных сообщений. Метеор Питера / Pete's Meteor [драма, криминал, 1998] DVDRip, Dvo

salma3

3 | 1

1.24 ГБ

В этой теме нет новых непрочитанных сообщений. Ужас из бездны / She Creature [ужасы, 2001] DVDRip-AVC, Mvo+Sub

salma3

1605 | 26

1.45 ГБ


Начать новую тему Ответить на тему  [ 1 сообщение ] 




Для Мосгорсуда, Роскомнадзора и рекламодателей:: mosgorsud-torrent[собачка]yandex.ru