Торрент файл
скачать торрент магнет ссылка Добавлен: 15 фев 2015, 21:46
Размер: 1.46 ГБ
Сидеров: 32
Личеров: 4
Статус: (salma3)
Автор

СообщениеДобавлено: 15 фев 2015, 21:46 

Не в сети
Супермодератор
Аватара пользователя
Дата регистрации:
15 фев 2012, 16:44
Возраст: 27
Спасибо: 5121 / 2089
Сообщения: 17274
Хорошая плохая девчонка / Good Girl, Bad Girl

Год выпуска: 2006
Жанр: Боевик
Режиссер: Себастьян Вигг

В ролях: Юлия Штинсхоф, Ник Бримбл, Грэм МакТавиш, Росс Ботмэн, Хендрик Дурин, Рут Гибсон, Майкл Калвер, Марсия Уоррен, Натали Робб

Описание:
Ванесса — самая популярная танцовщица в стрипклубе, который является отличным прикрытием для своего хозяина. Торговля наркотиками, оружием и всем, что еще можно продать — вот его основной бизнес. Ход очередной сделки пошел как-то не так, и подручным хозяина пришлось просто пристрелить торговца бриллиантами. Попав в самую гущу событий, Ванесса нашла убежище у своей сестры Марии. То, что сестры как две капли воды похожи друг на друга, запутало теперь не только криминальных приятелей Ванессы, но еще и обитателей монастыря, где Мария до этого дня вела тихую монашескую жизнь.



Страна: Германия
Продолжительность: 01:34:49
Перевод: Профессиональный [многоголосый]

Файл
Качество: DVDRip
Формат файла: AVI
Видео кодек: XviD
Аудио кодек: AC3
Видео: 720x400 (1.80:1), 23.976 fps, XviD MPEG-4 ~1803 kbps avg, 0.26 bit/pixel
Аудио 1: 48 kHz, AC3 Dolby Digital, 2/0 (L,R) ch, ~192 kbps [русский]
Аудио 2: 48 kHz, AC3 Dolby Digital, 2/0 (L,R) ch, ~192 kbps [английский]

Общее
Полное имя : D:ААА2Хорошая плохая девчонка.avi
Формат : AVI
Формат/Информация : Audio Video Interleave
Размер файла : 1,46 Гбайт
Продолжительность : 1 ч. 34 м.
Общий поток : 2202 Кбит/сек
Программа кодирования : VirtualDubMod 1.5.10.2 (build 2540/release)
Библиотека кодирования : VirtualDubMod build 2540/release

Видео
Идентификатор : 0
Формат : MPEG-4 Visual
Профиль формата : Advanced Simple@L5
Параметр BVOP формата : 2
Параметр QPel формата : Нет
Параметр GMC формата : Без точки перехода
Параметр матрицы формата : Default (MPEG)
Режим смешивания : Сжатый битовый поток
Идентификатор кодека : XVID
Идентификатор кодека/Подсказка : XviD
Продолжительность : 1 ч. 34 м.
Битрейт : 1804 Кбит/сек
Ширина : 720 пикселей
Высота : 400 пикселей
Соотношение сторон : 16:9
Частота кадров : 23,976 кадра/сек
Цветовое пространство : YUV
Субдискретизация насыщенности : 4:2:0
Битовая глубина : 8 бит
Тип развёртки : Прогрессивная
Метод сжатия : С потерями
Бит/(Пиксели*Кадры) : 0.261
Размер потока : 1,19 Гбайт (82%)
Библиотека кодирования : XviD 1.2.1 (UTC 2008-12-04)

Аудио #1
Идентификатор : 1
Формат : AC-3
Формат/Информация : Audio Coding 3
Расширение режима : CM (complete main)
Параметр Endianness формата : Big
Идентификатор кодека : 2000
Продолжительность : 1 ч. 34 м.
Вид битрейта : Постоянный
Битрейт : 192 Кбит/сек
Каналы : 2 канала
Расположение каналов : Front: L R
Частота : 48,0 КГц
Битовая глубина : 16 бит
Метод сжатия : С потерями
Размер потока : 130 Мбайт (9%)
Выравнивание : Разделение по промежуткам
Продолжительность промежутка : 42 мс. (1,00 видеокадр)
Время предзагрузки промежутка : 500 мс.

Аудио #2
Идентификатор : 2
Формат : AC-3
Формат/Информация : Audio Coding 3
Расширение режима : CM (complete main)
Параметр Endianness формата : Big
Идентификатор кодека : 2000
Продолжительность : 1 ч. 34 м.
Вид битрейта : Постоянный
Битрейт : 192 Кбит/сек
Каналы : 2 канала
Расположение каналов : Front: L R
Частота : 48,0 КГц
Битовая глубина : 16 бит
Метод сжатия : С потерями
Размер потока : 130 Мбайт (9%)
Выравнивание : Разделение по промежуткам
Продолжительность промежутка : 42 мс. (1,00 видеокадр)
Время предзагрузки промежутка : 500 мс.


Релиз:


_________________



реклама партнёра


Вернуться к началу
 Профиль Отправить личное сообщение  
 
   Похожие торренты   Автор   Торрент   Размер 
В этой теме нет новых непрочитанных сообщений. Tribbing To Ecstasy / Тёрка до экстаза (Girl Co. / Girl Co Films) (Rose Red, Sovereign Syre, Nikki Delano, Miss Moretti, Sinn Sage...) [2014 г., Lesbians, All Girl, DVDRip 406p]

killerslava

6 | 3

1.28 ГБ

В этой теме нет новых непрочитанных сообщений. Дрянная Девчонка / Dirty Girl [драма, 2010] Blu-Ray, Mvo+Sub

salma3

17 | 4

17.28 ГБ

В этой теме нет новых непрочитанных сообщений. Mila Jade / Good Girl Breaks Bad (2015) HD 720p

Dile-1

116 | 245

958.83 МБ

В этой теме нет новых непрочитанных сообщений. Каратистка / K.G / Karate Girl [Боевик, Боевые Искусства, 2011] DVDRip, Avo

salma3

204 | 10

1.39 ГБ

В этой теме нет новых непрочитанных сообщений. Девушка в беде / The Girl Is in Trouble [боевик, триллер, криминал, 2015] WEB-DLRip, dvo

Dracon

1070 | 75

1.46 ГБ

В этой теме нет новых непрочитанных сообщений. Сумасшедший дом / There Was a Little Girl [ужасы, 1981] DVDRip, Avo

salma3

29 | 5

1.37 ГБ

В этой теме нет новых непрочитанных сообщений. Последняя девушка / Final Girl (Тайлер Шилдс) [Триллер, Боевик, Драма, 2015] HDRip, avo

Dracon

27 | 1

1.47 ГБ


Начать новую тему Ответить на тему  [ 1 сообщение ] 




Для Мосгорсуда, Роскомнадзора и рекламодателей:: mosgorsud-torrent[собачка]yandex.ru