Торрент файл
скачать торрент магнет ссылка Добавлен: 15 фев 2015, 11:35
Размер: 1.85 ГБ
Сидеров: 164
Личеров: 5
Статус: (salma3)
Автор

СообщениеДобавлено: 15 фев 2015, 11:35 

Не в сети
Зам. Админа
Аватара пользователя
Дата регистрации:
02 дек 2010, 12:39
Спасибо: 12461 / 214
Сообщения: 27968
Год выхода: 2014
Жанр: мелодрама
Режиссер: Доминик Дерюддер / Dominique Deruddere
В ролях: Джейми Дорнан, Энтони Хэд, Нуман Акар, Макс Пиркис, Али Сулиман, Шэрон Мофан, Митчелл Маллен, Ян Деклер, Гене Бервутс, Элине Ван дер Фелден...

О фильме:
История о Колине, молодом честолюбивом корпоративном рейдере, и Изабель, фламандской студентке. Богатый арабский шейх, один из тех, кто может стать клиентом Колина, — большой поклонник голубей. Он уже пытался купить голубя-чемпиона из Фландрии, но хозяин птицы Йос упрямо отклоняет все его предложения. Пытаясь привлечь бизнес шейха на свою сторону, Колин предлагает заключить соглашение: если у него получится убедить Йоса продать голубя, то шейх подпишет договор с его компанией. Так Колин оказывается во Фландрии, в небольшой деревеньке, где выдает себя за учителя, занятого поисками могилы погибшего во время Первой мировой войны прадеда. Здесь Колин встречает Изабель…



Страна: Бельгия, Германия
Студия: Kanakna Productions, Otomatic, Twenty Four 9 Films
Продолжительность: 01:37:20
Перевод: Дублированное (официальное) Чистый звук

Кодек: MPEG-4 AVC (MKV)
Качество: HDRip-AVC
Видео: AVC, 1024x424, 2050 Kbps
Звук: Russian: AC3, 2 ch, 192 Kbps / English: AC3, 6 ch, 512 Kbps
Субтитры: Russian (Forced), Russian, English
Доп. информация: Присутствуют несколько фраз без перевода, на них вшиты русские субтитры.

Семпл
General
Unique ID : 233810890715142149880416252931901060242 (0xAFE656EE66B84B6186C9CB11CF8D7492)
Complete name : G:ДИСК 2�1.ФИЛЬМЫПолёт домой Flying Home (2014)Flying Home (2014) HDRip-AVC.mkv
Format : Matroska
Format version : Version 4 / Version 2
File size : 1.85 GiB
Duration : 1h 37mn
Overall bit rate : 2 718 Kbps
Encoded date : UTC 2015-02-15 05:19:40
Writing application : mkvmerge v7.5.0 ('Glass Culture') 64bit built on Jan 4 2015 16:48:44
Writing library : libebml v1.3.1 + libmatroska v1.4.2
_STATISTICS_WRITING_APP : mkvmerge v7.5.0 ('Glass Culture') 64bit built on Jan 4 2015 16:48:44
_STATISTICS_WRITING_DATE_UTC : 2015-02-15 05:19:40
_STATISTICS_TAGS : BPS DURATION NUMBER_OF_FRAMES NUMBER_OF_BYTES
DURATION : 01:37:20.064000000
NUMBER_OF_FRAMES : 182502
NUMBER_OF_BYTES : 373764096

Video
ID : 1
Format : AVC
Format/Info : Advanced Video Codec
Format profile : Main@L4.1
Format settings, CABAC : Yes
Format settings, ReFrames : 8 frames
Codec ID : V_MPEG4/ISO/AVC
Duration : 1h 37mn
Bit rate : 2 050 Kbps
Width : 1 024 pixels
Height : 424 pixels
Display aspect ratio : 2.40:1
Frame rate mode : Constant
Frame rate : 23.976 fps
Color space : YUV
Chroma subsampling : 4:2:0
Bit depth : 8 bits
Scan type : Progressive
Bits/(Pixel*Frame) : 0.197
Stream size : 1.33 GiB (72%)
Writing library : x264 core 125 r2200 999b753
Encoding settings : cabac=1 / ref=8 / deblock=1:-1:-1 / analyse=0x1:0x131 / me=umh / subme=10 / psy=1 / psy_rd=1.00:0.10 / mixed_ref=1 / me_range=16 / chroma_me=1 / trellis=2 / 8x8dct=0 / cqm=0 / deadzone=21,11 / fast_pskip=1 / chroma_qp_offset=-3 / threads=6 / lookahead_threads=1 / sliced_threads=0 / nr=0 / decimate=1 / interlaced=0 / bluray_compat=0 / constrained_intra=0 / bframes=8 / b_pyramid=2 / b_adapt=2 / b_bias=0 / direct=1 / weightb=1 / open_gop=1 / weightp=2 / keyint=250 / keyint_min=23 / scenecut=40 / intra_refresh=0 / rc_lookahead=50 / rc=abr / mbtree=1 / bitrate=2050 / ratetol=1.0 / qcomp=0.60 / qpmin=0 / qpmax=69 / qpstep=4 / ip_ratio=1.40 / aq=1:1.00
Language : English
Default : Yes
Forced : No

Audio #1
ID : 2
Format : AC-3
Format/Info : Audio Coding 3
Mode extension : CM (complete main)
Format settings, Endianness : Big
Codec ID : A_AC3
Duration : 1h 37mn
Bit rate mode : Constant
Bit rate : 192 Kbps
Channel(s) : 2 channels
Channel positions : Front: L R
Sampling rate : 48.0 KHz
Bit depth : 16 bits
Compression mode : Lossy
Stream size : 134 MiB (7%)
Title : line
Language : Russian
Default : Yes
Forced : No

Audio #2
ID : 3
Format : AC-3
Format/Info : Audio Coding 3
Mode extension : CM (complete main)
Format settings, Endianness : Big
Codec ID : A_AC3
Duration : 1h 37mn
Bit rate mode : Constant
Bit rate : 512 Kbps
Channel(s) : 6 channels
Channel positions : Front: L C R, Side: L R, LFE
Sampling rate : 48.0 KHz
Bit depth : 16 bits
Compression mode : Lossy
Stream size : 356 MiB (19%)
Language : English
Default : No
Forced : No

Text #1
ID : 4
Format : UTF-8
Codec ID : S_TEXT/UTF8
Codec ID/Info : UTF-8 Plain Text
Title : Forced
Language : Russian
Default : Yes
Forced : No

Text #2
ID : 5
Format : UTF-8
Codec ID : S_TEXT/UTF8
Codec ID/Info : UTF-8 Plain Text
Language : English
Default : No
Forced : No

Text #3
ID : 6
Format : UTF-8
Codec ID : S_TEXT/UTF8
Codec ID/Info : UTF-8 Plain Text
Title : SDH
Language : English
Default : No
Forced : No

Menu
00:00:00.000 : en:Chapter 01
00:04:34.608 : en:Chapter 02
00:09:49.672 : en:Chapter 03
00:13:32.353 : en:Chapter 04
00:16:34.702 : en:Chapter 05
00:21:19.487 : en:Chapter 06
00:26:40.015 : en:Chapter 07
00:30:48.722 : en:Chapter 08
00:36:26.434 : en:Chapter 09
00:44:26.831 : en:Chapter 10
00:51:11.610 : en:Chapter 11
00:58:55.949 : en:Chapter 12
01:04:06.551 : en:Chapter 13
01:08:03.871 : en:Chapter 14
01:12:08.533 : en:Chapter 15
01:16:06.896 : en:Chapter 16
01:20:59.897 : en:Chapter 17
01:26:08.830 : en:Chapter 18
01:30:08.778 : en:Chapter 19
01:34:10.937 : en:Chapter 20





реклама партнёра


Вернуться к началу
 Профиль  
 
   Похожие торренты   Автор   Торрент   Размер 
В этой теме нет новых непрочитанных сообщений. Полёт домой  / Flying Home (Доминик Дерюддер) [Мелодрама, 2014] HDRip, dub [чистый звук]

Dracon

6 | 3

1.37 ГБ

В этой теме нет новых непрочитанных сообщений. Полёт домой / Flying Home (Доминик Дерюддер) [Мелодрама, 2014] HDRip, dub [чистый звук]

Dracon

4 | 3

699.75 МБ

В этой теме нет новых непрочитанных сообщений. Полёт домой / Flying Home (Доминик Дерюддер) [Мелодрама, 2014] BDRip 720p, dub+sub [чистый звук]

Dracon

118 | 6

5.02 ГБ

В этой теме нет новых непрочитанных сообщений. Здравствуй, папа, Новый год / Daddy's Home [Комедия, 2015] HDRip, dub [чистый звук]

Dracon

6243 | 60

1.37 ГБ

В этой теме нет новых непрочитанных сообщений. Пристегните ремни / Allacciate le cinture [мелодрама, 2014] HDRip, dub [чистый звук]

Dracon

1878 | 82

1.46 ГБ

В этой теме нет новых непрочитанных сообщений. Пристегните ремни / Allacciate le cinture [мелодрама, 2014] HDRip, dub [чистый звук]

Dracon

139 | 6

2.05 ГБ

В этой теме нет новых непрочитанных сообщений. Красавица и чудовище / La belle et la bête [фэнтези, мелодрама, 2014] HDRip, dub [Чистый звук]

Dracon

2579 | 80

2.05 ГБ


Начать новую тему Ответить на тему  [ 1 сообщение ] 




Для Мосгорсуда, Роскомнадзора и рекламодателей:: mosgorsud-torrent[собачка]yandex.ru