Торрент файл
скачать торрент магнет ссылка Добавлен: 15 фев 2015, 11:09
Размер: 2.01 ГБ
Сидеров: 63
Личеров: 5
Статус: (salma3)
Автор

СообщениеДобавлено: 15 фев 2015, 11:09 

Не в сети
Зам. Админа
Аватара пользователя
Дата регистрации:
02 дек 2010, 12:39
Спасибо: 12623 / 214
Сообщения: 28012
Год выхода: 2013
Жанр: Драма, музыка
Режиссер: Рэндолл Миллер
В ролях: Алан Рикман, Донал Лог, Эшли Грин, Фредди Родригес

О фильме:
Фильм «Клуб CBGB» (CBGB) – взгляд на динамичную историю развития нью-йоркского панк-рока и ночного клуба «CBGB» в Нижнем Ист-Сайде, основанного Хилли Кристаллом (его роль играет Алан Рикман) в 1973 году. Именно в этом заведении зародились андеграундный рок-н-ролл и панк, здесь впервые заявили о себе такие будущие звезды и зачинатели жанра панк-рок, как группы Blondie, Ramones, Dead Boys, The Velvet Underground, а также их последователи Green Day, Soul Asylum, The Red Hot Chili Peppers и многие, многие другие.
Рэндолл Миллер



Страна: США
Студия: Unclaimed Freight Productions, Rampart Films
Продолжительность: 01:42:35
Перевод: Профессиональный многоголосый, любительский двухголосый

Кодек: MPEG-4 AVC
Качество: HDRip-AVC
Видео: 1850 Кбит/с, 1024x424
Звук: Русский (AC3, 2 ch, 192 Кбит/с), (AC3, 6 ch, 384 Кбит/с), английский (AC3, 6 ch, 384 Кбит/с)
Субтитры: Русские, английские

Формат : Matroska
Версия формата : Version 4 / Version 2
Размер файла : 2,01 Гбайт
Продолжительность : 1 ч. 42 м.
Общий поток : 2811 Кбит/сек
Название фильма : CBGB.2013.x264.HDRip.(AVC)
Дата кодирования : UTC 2015-02-14 09:58:40
Программа кодирования : mkvmerge v7.6.0 ('Garden of Dreams') 64bit built on Feb 8 2015 13:04:34
Библиотека кодирования : libebml v1.3.1 + libmatroska v1.4.2
DURATION : 01:42:09.366000000
NUMBER_OF_FRAMES : 1638
NUMBER_OF_BYTES : 55475
_STATISTICS_WRITING_APP : mkvmerge v7.6.0 ('Garden of Dreams') 64bit built on Feb 8 2015 13:04:34
_STATISTICS_WRITING_DATE_UTC : 2015-02-14 09:58:40
_STATISTICS_TAGS : BPS DURATION NUMBER_OF_FRAMES NUMBER_OF_BYTES

Видео
Идентификатор : 1
Формат : AVC
Формат/Информация : Advanced Video Codec
Профиль формата : High@L4.1
Параметр CABAC формата : Да
Параметр ReFrames формата : 11 кадров
Идентификатор кодека : V_MPEG4/ISO/AVC
Продолжительность : 1 ч. 42 м.
Битрейт : 1850 Кбит/сек
Ширина : 1024 пикселя
Высота : 424 пикселя
Соотношение сторон : 2,40:1
Режим частоты кадров : Постоянный
Частота кадров : 23,976 кадра/сек
Цветовое пространство : YUV
Субдискретизация насыщенности : 4:2:0
Битовая глубина : 8 бит
Тип развёртки : Прогрессивная
Бит/(Пиксели*Кадры) : 0.178
Размер потока : 1,29 Гбайт (64%)
Заголовок : CBGB.2013.x264.HDRip.(AVC).by.StarbirS
Библиотека кодирования : x264 core 144 r2525 40bb568
Настройки программы : cabac=1 / ref=11 / deblock=1:-3:-3 / analyse=0x3:0x133 / me=umh / subme=10 / psy=1 / psy_rd=1.00:0.20 / mixed_ref=1 / me_range=32 / chroma_me=1 / trellis=2 / 8x8dct=1 / cqm=0 / deadzone=21,11 / fast_pskip=0 / chroma_qp_offset=-3 / threads=12 / lookahead_threads=2 / sliced_threads=0 / nr=0 / decimate=1 / interlaced=0 / bluray_compat=0 / constrained_intra=0 / bframes=7 / b_pyramid=2 / b_adapt=2 / b_bias=0 / direct=3 / weightb=1 / open_gop=1 / weightp=2 / keyint=240 / keyint_min=23 / scenecut=40 / intra_refresh=0 / rc=2pass / mbtree=0 / bitrate=1850 / ratetol=1.0 / qcomp=0.65 / qpmin=0 / qpmax=69 / qpstep=4 / cplxblur=20.0 / qblur=0.5 / ip_ratio=1.40 / pb_ratio=1.30 / aq=1:0.90
Язык : English
Default : Да
Forced : Нет
DURATION : 01:42:34.565000000
NUMBER_OF_FRAMES : 147562
NUMBER_OF_BYTES : 1422337194
_STATISTICS_WRITING_APP : mkvmerge v7.6.0 ('Garden of Dreams') 64bit built on Feb 8 2015 13:04:34
_STATISTICS_WRITING_DATE_UTC : 2015-02-14 09:58:40
_STATISTICS_TAGS : BPS DURATION NUMBER_OF_FRAMES NUMBER_OF_BYTES

Аудио #1
Идентификатор : 2
Формат : AC-3
Формат/Информация : Audio Coding 3
Расширение режима : CM (complete main)
Параметр Endianness формата : Big
Идентификатор кодека : A_AC3
Продолжительность : 1 ч. 42 м.
Вид битрейта : Постоянный
Битрейт : 192 Кбит/сек
Каналы : 2 канала
Расположение каналов : Front: L R
Частота : 44,1 КГц
Битовая глубина : 16 бит
Метод сжатия : С потерями
Задержка видео : 18 с.
Размер потока : 141 Мбайт (7%)
Заголовок : Профессиональный многоголосый (Чистый звук)
Язык : Russian
Default : Да
Forced : Нет

Аудио #2
Идентификатор : 3
Формат : AC-3
Формат/Информация : Audio Coding 3
Расширение режима : CM (complete main)
Параметр Endianness формата : Big
Идентификатор кодека : A_AC3
Продолжительность : 1 ч. 42 м.
Вид битрейта : Постоянный
Битрейт : 384 Кбит/сек
Каналы : 6 каналов
Расположение каналов : Front: L C R, Side: L R, LFE
Частота : 48,0 КГц
Битовая глубина : 16 бит
Метод сжатия : С потерями
Размер потока : 282 Мбайт (14%)
Заголовок : Любительский двухголосый (lord666 и Rin112)
Язык : Russian
Default : Нет
Forced : Нет

Аудио #3
Идентификатор : 4
Формат : AC-3
Формат/Информация : Audio Coding 3
Расширение режима : CM (complete main)
Параметр Endianness формата : Big
Идентификатор кодека : A_AC3
Продолжительность : 1 ч. 42 м.
Вид битрейта : Постоянный
Битрейт : 384 Кбит/сек
Каналы : 6 каналов
Расположение каналов : Front: L C R, Side: L R, LFE
Частота : 48,0 КГц
Битовая глубина : 16 бит
Метод сжатия : С потерями
Размер потока : 282 Мбайт (14%)
Язык : English
Default : Нет
Forced : Нет

Текст #1
Идентификатор : 5
Формат : UTF-8
Идентификатор кодека : S_TEXT/UTF8
Идентификатор кодека/Информация : UTF-8 Plain Text
Заголовок : HinoJaySimpson
Язык : Russian
Default : Да
Forced : Нет

Текст #2
Идентификатор : 6
Формат : UTF-8
Идентификатор кодека : S_TEXT/UTF8
Идентификатор кодека/Информация : UTF-8 Plain Text
Язык : English
Default : Нет
Forced : Нет

Меню
00:00:00.000 : en:
00:07:47.008 : en:
00:13:08.454 : en:
00:18:14.885 : en:
00:23:47.634 : en:
00:32:56.057 : en:
00:36:39.238 : en:
00:43:37.281 : en:
00:48:43.545 : en:
00:54:53.999 : en:
01:02:58.649 : en:
01:08:59.510 : en:
01:13:43.836 : en:
01:18:46.638 : en:
01:24:05.832 : en:
01:31:15.344 : en:





реклама партнёра


Вернуться к началу
 Профиль  
 
   Похожие торренты   Автор   Торрент   Размер 
В этой теме нет новых непрочитанных сообщений. Клуб "Коттон" / The Cotton Club [драма, криминал, музыка, 1984] HDRip, Mvo

salma3

8 | 0

2.18 ГБ

В этой теме нет новых непрочитанных сообщений. Клуб жён астронавтов / The Astronaut Wives Club [S01] (Дж. Миллер Тобин) [драма, 2015] WEB-DL 720p [Baibako]

Dracon

61 | 83

13.86 ГБ

В этой теме нет новых непрочитанных сообщений. Клуб жён астронавтов / The Astronaut Wives Club [1 сезон 1-10 серии из 10] (Дж. Миллер Тобин) [драма, 2015] WEB-DLRip [Baibako]

Dracon

11 | 3

5.54 ГБ

В этой теме нет новых непрочитанных сообщений. Клуб "Коттон" / The Cotton Club [драма, криминал, музыка, 1984] BDRip 720p, Dub

salma3

28 | 40

11.63 ГБ

В этой теме нет новых непрочитанных сообщений. Вальс для Моники / Monica Z (Пер Флю) [Драма, биография, музыка, 2013] HDRip, Mvo

Dracon

0 | 4

1.46 ГБ

В этой теме нет новых непрочитанных сообщений. Мы – лучшие! / Vi ar bast! (Лукас Мудиссон) [Драма, Музыка, 2013] HDRip, Mvo

Dracon

2 | 3

1.46 ГБ

В этой теме нет новых непрочитанных сообщений. Пресная вода / Sweetwater (Логан Миллер) [триллер, вестерн, 2013] HDRip, mvo

Dracon

2 | 1

1.37 ГБ


Начать новую тему Ответить на тему  [ 1 сообщение ] 




Для Мосгорсуда, Роскомнадзора и рекламодателей:: mosgorsud-torrent[собачка]yandex.ru