Торрент файл
скачать торрент магнет ссылка Добавлен: 06 фев 2015, 15:39
Размер: 744 МБ
Сидеров: 1
Личеров: 3
Статус: (salma3)
Автор

СообщениеДобавлено: 06 фев 2015, 15:39 

Не в сети
Зам. Админа
Аватара пользователя
Дата регистрации:
02 дек 2010, 12:39
Спасибо: 12460 / 214
Сообщения: 27968
Год выхода: 2014
Жанр: драма
Режиссер:  Карен Ли Хопкинс
В ролях: Кэти Холмс, Джеймс Бэдж Дэйл, Каллэн Мулвей, Стефен Бишоп, Тайлер Корбет, Сайда Аррика Экулона, Milly Hopkins, Джеймс Хеберт, Ава Колкер, Шарлотта Лабади

О фильме:
История об учителе начальной школы, который в тайне является ярым борцом с преступностью.
   

Качество: WEB-DLRip [Исх. WEB-DL 720p]
Видео: 624x352 (1.77:1), 23.976 fps, XviD build 73 ~1045 kbps avg, 0.20 bit/pixel
Аудио: 48 kHz, MPEG Layer 3, 2 ch, ~128.00 kbps avg
Продолжительность: 01:27:57
Перевод: Профессиональный (многоголосный) [НТВ+]
Cубтитры: нет

Общее
Полное имя                       : S:ФильмыМисс Медоуз. 2014. WEB-DLRip (AleksSin).avi
Формат                           : AVI
Формат/Информация                : Audio Video Interleave
Размер файла                     : 744 Мбайт
Продолжительность                : 1 ч. 27 м.
Общий поток                      : 1183 Кбит/сек
Программа кодирования            : VirtualDubMod 1.5.10.3 | (build 2550/release)
Библиотека кодирования           : VirtualDubMod build 2550/release

Видео
Идентификатор                    : 0
Формат                           : MPEG-4 Visual
Профиль формата                  : Advanced Simple@L5
Параметр BVOP формата            : 1
Параметр QPel формата            : Нет
Параметр GMC формата             : Без точки перехода
Параметр матрицы формата         : Выборочная
Идентификатор кодека             : XVID
Идентификатор кодека/Подсказка   : XviD
Продолжительность                : 1 ч. 27 м.
Битрейт                          : 1045 Кбит/сек
Ширина                           : 624 пикс.
Высота                           : 352 пикс.
Соотношение сторон               : 16:9
Частота кадров                   : 23,976 кадр/сек
Цветовое пространство            : YUV
Подвыборка цветности             : 4:2:0
Битовая глубина                  : 8 бит
Тип развёртки                    : Прогрессивная
Метод сжатия                     : С потерями
Бит/(Пиксели*Кадры)              : 0.198
Размер потока                    : 658 Мбайт (88%)
Библиотека кодирования           : XviD 73

Аудио
Идентификатор                    : 1
Формат                           : MPEG Audio
Версия формата                   : Version 1
Профиль формата                  : Layer 3
Идентификатор кодека             : 55
Идентификатор кодека/Подсказка   : MP3
Продолжительность                : 1 ч. 27 м.
Вид битрейта                     : Постоянный
Битрейт                          : 128 Кбит/сек
Каналы                           : 2 канала
Частота                          : 48,0 КГц
Метод сжатия                     : С потерями
Размер потока                    : 80,5 Мбайт (11%)
Выравнивание                     : Соединение по промежуткам
Продолжительность промежутка     : 42  мс. (1,00 видеокадр)
Время предзагрузки промежутка    : 504 ms
Библиотека кодирования           : LAME3.99r
Настройки программы              : -m s -V 4 -q 2 -lowpass 17 -b 128










реклама партнёра


Вернуться к началу
 Профиль  
 
   Похожие торренты   Автор   Торрент   Размер 
В этой теме нет новых непрочитанных сообщений. Мисс Медоуз / Miss Meadows (Карен Ли Хопкинс) [драма, 2014] WEB-DLRip, Mvo [НТВ+]

Dracon

7 | 5

1.37 ГБ

В этой теме нет новых непрочитанных сообщений. Мисс Медоуз / Miss Meadows (Карен Ли Хопкинс) [драма, 2014] WEB-DL 720p, Mvo [НТВ+]

salma3

35 | 15

2.76 ГБ

В этой теме нет новых непрочитанных сообщений. Леди-детектив мисс Фрайни Фишер / Miss Fisher's Murder Mysteries / 3 сезон 1-8 серии из 8 [Детектив, криминал, драма, 2015] WEB-DLRip, Mvo [ViruseProject]

salma3

250 | 82

4.71 ГБ

В этой теме нет новых непрочитанных сообщений. Мисс Бабуля / Su-sang-han geu-nyeo / Miss Granny (Дон Хёк Хван) [2014, Комедия, HDRip] dvo

Dracon

662 | 19

1.38 ГБ

В этой теме нет новых непрочитанных сообщений. Мисс Бабуля / Su-sang-han geu-nyeo / Miss Granny [Комедия,2014] BDRip 720p, dvo

Dracon

22 | 3

4.68 ГБ

В этой теме нет новых непрочитанных сообщений. Мисс Поттер / Miss Potter [драма, биография, 2006] BDRip 720p, Dub+Sub

salma3

21 | 2

3.18 ГБ

В этой теме нет новых непрочитанных сообщений. Маленькая мисс Счастье / Little Miss Sunshine [драма, комедия, приключения, 2006] Blu-ray, Mvo+Sub

salma3

21 | 43

36.26 ГБ


Начать новую тему Ответить на тему  [ 1 сообщение ] 




Для Мосгорсуда, Роскомнадзора и рекламодателей:: mosgorsud-torrent[собачка]yandex.ru