Торрент файл
скачать торрент магнет ссылка Добавлен: 06 фев 2015, 11:00
Размер: 745.4 МБ
Сидеров: 4
Личеров: 3
Статус: (salma3)
Автор

СообщениеДобавлено: 06 фев 2015, 11:00 

Не в сети
Зам. Админа
Аватара пользователя
Дата регистрации:
02 дек 2010, 12:39
Спасибо: 12623 / 214
Сообщения: 28012
Год выхода: 2014
Жанр:  комедия
Режиссер: Лоран Тирар
В ролях: Матео Бойсселье, Валери Лемерсье, Кад Мерад, Доминик Лаванан, Франсуа-Ксавье Демезон, Були Ланнерс, Лука Дзингаретти, Жюдит Анри, Франсис Перрен, Даниэль Прево

О фильме:  Учебный год наконец подошел к концу, и наступили долгожданные каникулы. Малыш Николя с родителями и бабушкой отправляется к морю в отель «Красивый берег». У Николя в распоряжении море, отель, лес, друзья, семья, смотритель пляжа и тренер по плаванию — словом, все, чтобы каникулы выдались по-настоящему запоминающимися.
Не тратя времени даром, Николя сразу же обзаводится новыми друзьями, среди которых: Бен — он не на каникулах, он местный; обжора Фредди — ест все подряд; Джоки — он англичанин, поэтому говорит с смешным акцентом; плакса Криспин, у которого вечно глаза на мокром месте, и зануда Кристофер — он всегда прав и поэтому жутко бесит. Кроме того, Николя знакомится с Элизабет, которая не отходит от Николя ни на шаг. «Какая милая парочка! Я уже слышу будущий звон свадебных колоколов!» — шутят взрослые. Николя в панике! К счастью, верные друзья приходят ему на выручку и… тут начинаются настоящие проблемы.

  

Качество: HDRip  [Рип с BDRip 720p]
Видео: 656x352 (1.86:1), 23.976 fps, XviD build 73 ~936 kbps avg, 0.17 bit/pixel
Аудио: 48 kHz, MPEG Layer 3, 2 ch, ~128.00 kbps avg
Продолжительность: 01:37:06
Перевод: Дублированный [Чистый звук] Официальное
Cубтитры: нет

Общее
Полное имя                       : S:ФильмыКаникулы маленького Николя. 2014. HDRip (AleksSin).avi
Формат                           : AVI
Формат/Информация                : Audio Video Interleave
Размер файла                     : 745 Мбайт
Продолжительность                : 1 ч. 37 м.
Общий поток                      : 1073 Кбит/сек
Программа кодирования            : VirtualDubMod 1.5.10.3 | http://www.virtualdub-fr.org || (build 2550/release)
Библиотека кодирования           : VirtualDubMod build 2550/release

Видео
Идентификатор                    : 0
Формат                           : MPEG-4 Visual
Профиль формата                  : Advanced Simple@L5
Параметр BVOP формата            : 1
Параметр QPel формата            : Нет
Параметр GMC формата             : Без точки перехода
Параметр матрицы формата         : Выборочная
Идентификатор кодека             : XVID
Идентификатор кодека/Подсказка   : XviD
Продолжительность                : 1 ч. 37 м.
Битрейт                          : 936 Кбит/сек
Ширина                           : 656 пикс.
Высота                           : 352 пикс.
Соотношение сторон               : 1,864
Частота кадров                   : 23,976 кадр/сек
Цветовое пространство            : YUV
Подвыборка цветности             : 4:2:0
Битовая глубина                  : 8 бит
Тип развёртки                    : Прогрессивная
Метод сжатия                     : С потерями
Бит/(Пиксели*Кадры)              : 0.17
Размер потока                    : 650 Мбайт (87%)
Библиотека кодирования           : XviD 73

Аудио
Идентификатор                    : 1
Формат                           : MPEG Audio
Версия формата                   : Version 1
Профиль формата                  : Layer 3
Идентификатор кодека             : 55
Идентификатор кодека/Подсказка   : MP3
Продолжительность                : 1 ч. 37 м.
Вид битрейта                     : Постоянный
Битрейт                          : 128 Кбит/сек
Каналы                           : 2 канала
Частота                          : 48,0 КГц
Метод сжатия                     : С потерями
Размер потока                    : 88,9 Мбайт (12%)
Выравнивание                     : Соединение по промежуткам
Продолжительность промежутка     : 42  мс. (1,00 видеокадр)
Время предзагрузки промежутка    : 504 ms
Библиотека кодирования           : LAME3.99r
Настройки программы              : -m s -V 4 -q 2 -lowpass 17 -b 128










реклама партнёра


Вернуться к началу
 Профиль  
 
   Похожие торренты   Автор   Торрент   Размер 
В этой теме нет новых непрочитанных сообщений. Каникулы маленького Николя / Les vacances du petit Nicolas (Лоран Тирар) [комедия, 2014] HDRip, dub [Чистый звук]

Dracon

7 | 2

1.37 ГБ

В этой теме нет новых непрочитанных сообщений. Каникулы маленького Николя / Les vacances du petit Nicolas (Лоран Тирар) [комедия, 2014] BDRip 720p, dub [Чистый звук]

Dracon

105 | 4

4.5 ГБ

В этой теме нет новых непрочитанных сообщений. Каникулы маленького Николя / Les vacances du petit Nicolas (Лоран Тирар) [комедия, 2014] BDRip 1080p, dub [Чистый звук]

Dracon

1 | 4

6.68 ГБ

В этой теме нет новых непрочитанных сообщений. Сен-Лоран. Стиль – это я / Saint Laurent [драма, биография, 2014] HDRip, dub [чистый звук]

Dracon

6 | 3

1.46 ГБ

В этой теме нет новых непрочитанных сообщений. Сен-Лоран. Стиль – это я / Saint Laurent [драма, биография, 2014] WEB-DL 1080p, dub [чистый звук]

Dracon

33 | 4

4.41 ГБ

В этой теме нет новых непрочитанных сообщений. Сен-Лоран. Стиль – это я / Saint Laurent [драма, биография, 2014] WEB-DLRip, dub [чистый звук]

Dracon

9 | 2

2.18 ГБ

В этой теме нет новых непрочитанных сообщений. Сен-Лоран. Стиль – это я / Saint Laurent [драма, биография, 2014] BDRip 720p, dub [чистый звук]

Dracon

4 | 2

6.95 ГБ


Начать новую тему Ответить на тему  [ 1 сообщение ] 




Для Мосгорсуда, Роскомнадзора и рекламодателей:: mosgorsud-torrent[собачка]yandex.ru