Торрент файл
скачать торрент магнет ссылка Добавлен: 04 фев 2015, 16:09
Размер: 1.46 ГБ
Сидеров: 33
Личеров: 6
Статус: (salma3)
Автор

СообщениеДобавлено: 04 фев 2015, 16:09 

В сети
Супермодератор
Аватара пользователя
Дата регистрации:
15 фев 2012, 16:44
Возраст: 27
Спасибо: 5148 / 2090
Сообщения: 17558
Бруклинская братва / The Brooklyn Boys

Год выпуска: 2009
Жанр: Драма, криминал
Режиссер: Джон Бьянко

В ролях: Джон Бьянко. Брайан Карпентер, Рик Касале, Джонни Десальво, Джои Эспозито, Энтони Джераке, Майкл Джераке, Питер М. Карлин, Фрэнк Морано, Марки Рамоне

Описание: Мафиозный клан Бьянчино контролирует игорные заведения и клубы Бруклина. Это весьма авторитетная и влиятельная мафиозная семейка. Тем, кто, верно ей служит, раздаются награды — деньги, власть и красивые женщины. А взамен требуется только уважение, повиновение и молчание. Главное — молчание, оно не должно быть нарушено ни под каким предлогом, заговорившему наказание только одно — смерть. Но в мафиозном мире, где властвуют жадность, корысть и похоть, все кодексы уже давно нарушены, и среди парней из Бруклина царят обман, ложь и предательство. К тому же один из членов клана — агент ФБР…



Страна: США
Продолжительность: 01:20:29
Перевод: Профессиональный [многоголосый]

Файл
Качество: DVDRip
Формат файла: AVI
Видео кодек: XviD
Аудио кодек: AC3
Видео: 704x368 (1.91:1), 23.976 fps, XviD MPEG-4 ~1684 kbps avg, 0.27 bit/pixel
Аудио 1: 48 kHz, AC3 Dolby Digital, 2/0 (L,R) ch, ~192 kbps [русский]
Аудио 2: 48 kHz, AC3 Dolby Digital, 2/0 (L,R) ch, ~192 kbps [английский]

Общее
Полное имя : D:ААА2Бруклинская братва.avi
Формат : AVI
Формат/Информация : Audio Video Interleave
Размер файла : 1,46 Гбайт
Продолжительность : 1 ч. 40 м.
Общий поток : 2083 Кбит/сек
Программа кодирования : VirtualDubMod 1.5.10.2 (build 2540/release)
Библиотека кодирования : VirtualDubMod build 2540/release

Видео
Идентификатор : 0
Формат : MPEG-4 Visual
Профиль формата : Advanced Simple@L5
Параметр BVOP формата : 2
Параметр QPel формата : Нет
Параметр GMC формата : Без точки перехода
Параметр матрицы формата : Default (MPEG)
Режим смешивания : Сжатый битовый поток
Идентификатор кодека : XVID
Идентификатор кодека/Подсказка : XviD
Продолжительность : 1 ч. 40 м.
Битрейт : 1685 Кбит/сек
Ширина : 704 пикселя
Высота : 368 пикселей
Соотношение сторон : 1,913
Частота кадров : 23,976 кадра/сек
Цветовое пространство : YUV
Субдискретизация насыщенности : 4:2:0
Битовая глубина : 8 бит
Тип развёртки : Прогрессивная
Метод сжатия : С потерями
Бит/(Пиксели*Кадры) : 0.271
Размер потока : 1,18 Гбайт (81%)
Библиотека кодирования : XviD 1.2.1 (UTC 2008-12-04)

Аудио #1
Идентификатор : 1
Формат : AC-3
Формат/Информация : Audio Coding 3
Расширение режима : CM (complete main)
Параметр Endianness формата : Big
Идентификатор кодека : 2000
Продолжительность : 1 ч. 40 м.
Вид битрейта : Постоянный
Битрейт : 192 Кбит/сек
Каналы : 2 канала
Расположение каналов : Front: L R
Частота : 48,0 КГц
Битовая глубина : 16 бит
Метод сжатия : С потерями
Размер потока : 138 Мбайт (9%)
Выравнивание : Разделение по промежуткам
Продолжительность промежутка : 42 мс. (1,00 видеокадр)
Время предзагрузки промежутка : 500 мс.

Аудио #2
Идентификатор : 2
Формат : AC-3
Формат/Информация : Audio Coding 3
Расширение режима : CM (complete main)
Параметр Endianness формата : Big
Идентификатор кодека : 2000
Продолжительность : 1 ч. 40 м.
Вид битрейта : Постоянный
Битрейт : 192 Кбит/сек
Каналы : 2 канала
Расположение каналов : Front: L R
Частота : 48,0 КГц
Битовая глубина : 16 бит
Метод сжатия : С потерями
Размер потока : 138 Мбайт (9%)
Выравнивание : Разделение по промежуткам
Продолжительность промежутка : 42 мс. (1,00 видеокадр)
Время предзагрузки промежутка : 500 мс.


Релиз:


_________________



реклама партнёра


Вернуться к началу
 Профиль Отправить личное сообщение  
 
   Похожие торренты   Автор   Торрент   Размер 
В этой теме нет новых непрочитанных сообщений. Рожденные в Бруклине / A Brooklyn State of Mind [драма, криминал, 1998] DVDRip, Avo

salma3

123 | 1

1.37 ГБ

В этой теме нет новых непрочитанных сообщений. She's DTF: Down to Fuck 2 / Она склонна к траху 2 (Nicholas Steele / Bluebird Films) (Brooklyn Chase, Maddy O'Reilly, Alison Tyler, Jessie Rogers, Brooklyn Lee...) [2013 г., All Sex, Gonzo, DVDRip 404p]

friizze

2 | 3

2.81 ГБ

В этой теме нет новых непрочитанных сообщений. Парни из женской общаги / Sorority Boys [Комедия, 2002] DVDRip, Mvo

salma3

252 | 13

1.46 ГБ

В этой теме нет новых непрочитанных сообщений. Поглощён Уснул на работе / Boobs On Brooklyn (Brooklyn Chase) (2014) SiteRip Данный торрент является блокированным, причина: поглощённый торрент

friizze

543 | 57

440.85 МБ

В этой теме нет новых непрочитанных сообщений. Бруклинские полицейские / Brooklyn's Finest [триллер, драма, криминал, 2009] BDRip 1080p, Dub+dvo+Avo+sub

salma3

7 | 8

16.13 ГБ

В этой теме нет новых непрочитанных сообщений. Законы Бруклина / Brooklyn Rules [Драма, криминал, гангстерский, 2007] BDRip 1080р, Mvo+Sub

salma3

53 | 11

7.05 ГБ

В этой теме нет новых непрочитанных сообщений. Такси: Южный Бруклин / Taxi Brooklyn [S01] [боевик, драма, комедия, криминал, 2014] HDTVRip, Avo

salma3

21 | 15

4.55 ГБ


Начать новую тему Ответить на тему  [ 1 сообщение ] 




Для Мосгорсуда, Роскомнадзора и рекламодателей:: mosgorsud-torrent[собачка]yandex.ru