Торрент файл
скачать торрент магнет ссылка Добавлен: 03 фев 2015, 00:10
Размер: 1.37 ГБ
Сидеров: 42
Личеров: 7
Статус: (salma3)
Автор

СообщениеДобавлено: 03 фев 2015, 00:10 

Не в сети
Супермодератор
Аватара пользователя
Дата регистрации:
15 фев 2012, 16:44
Возраст: 27
Спасибо: 5143 / 2090
Сообщения: 17513
Затерянные в лесу / Lost in the Woods

Год выпуска: 2009
Жанр: Комедия
Режиссер: Джим Уайнорски

В ролях: Майкл Мэдсен, Шон Кайл, Хэйли Санчез, Скотт Л. Швартц, Кори Лэндис, Джон Кэллэхэн, Мэгги Вагнер, Пол Грэйс, Эрик Суини, Мэрайя Паркин

Описание:
10-летний Тимми и его родители отправляются проведать бабушку, живущую в горах. Отдых на полпути оборачивается чрезвычайным происшествием: Тимми попадает в руки нехороших парней, похитивших до этого дочь миллиардера Челси...



Страна: США
Продолжительность: 01:20:29
Перевод: Профессиональный [многоголосый]

Файл
Качество: DVDRip
Формат файла: AVI
Видео кодек: XviD
Аудио кодек: AC3
Видео: 720x400 (1.80:1), 23.976 fps, XviD MPEG-4 ~2037 kbps avg, 0.29 bit/pixel
Аудио 1: 48 kHz, AC3 Dolby Digital, 2/0 (L,R) ch, ~192 kbps [русский]
Аудио 2: 48 kHz, AC3 Dolby Digital, 2/0 (L,R) ch, ~192 kbps [английский]

Общее
Полное имя : D:ААА2Затерянные в лесу.avi
Формат : AVI
Формат/Информация : Audio Video Interleave
Размер файла : 1,37 Гбайт
Продолжительность : 1 ч. 20 м.
Общий поток : 2436 Кбит/сек
Программа кодирования : VirtualDubMod 1.5.10.2 (build 2540/release)
Библиотека кодирования : VirtualDubMod build 2540/release

Видео
Идентификатор : 0
Формат : MPEG-4 Visual
Профиль формата : Advanced Simple@L5
Параметр BVOP формата : 2
Параметр QPel формата : Нет
Параметр GMC формата : Без точки перехода
Параметр матрицы формата : Default (MPEG)
Режим смешивания : Сжатый битовый поток
Идентификатор кодека : XVID
Идентификатор кодека/Подсказка : XviD
Продолжительность : 1 ч. 20 м.
Битрейт : 2038 Кбит/сек
Ширина : 720 пикселей
Высота : 400 пикселей
Соотношение сторон : 16:9
Частота кадров : 23,976 кадра/сек
Цветовое пространство : YUV
Субдискретизация насыщенности : 4:2:0
Битовая глубина : 8 бит
Тип развёртки : Прогрессивная
Метод сжатия : С потерями
Бит/(Пиксели*Кадры) : 0.295
Размер потока : 1,15 Гбайт (84%)
Библиотека кодирования : XviD 1.2.1 (UTC 2008-12-04)

Аудио #1
Идентификатор : 1
Формат : AC-3
Формат/Информация : Audio Coding 3
Расширение режима : CM (complete main)
Параметр Endianness формата : Big
Идентификатор кодека : 2000
Продолжительность : 1 ч. 20 м.
Вид битрейта : Постоянный
Битрейт : 192 Кбит/сек
Каналы : 2 канала
Расположение каналов : Front: L R
Частота : 48,0 КГц
Битовая глубина : 16 бит
Метод сжатия : С потерями
Размер потока : 111 Мбайт (8%)
Выравнивание : Разделение по промежуткам
Продолжительность промежутка : 42 мс. (1,00 видеокадр)
Время предзагрузки промежутка : 500 мс.

Аудио #2
Идентификатор : 2
Формат : AC-3
Формат/Информация : Audio Coding 3
Расширение режима : CM (complete main)
Параметр Endianness формата : Big
Идентификатор кодека : 2000
Продолжительность : 1 ч. 20 м.
Вид битрейта : Постоянный
Битрейт : 192 Кбит/сек
Каналы : 2 канала
Расположение каналов : Front: L R
Частота : 48,0 КГц
Битовая глубина : 16 бит
Метод сжатия : С потерями
Задержка видео : 27 мс.
Размер потока : 110 Мбайт (8%)
Выравнивание : Разделение по промежуткам
Продолжительность промежутка : 42 мс. (1,00 видеокадр)
Время предзагрузки промежутка : 500 мс.


Релиз:


_________________



реклама партнёра


Вернуться к началу
 Профиль Отправить личное сообщение  
 
   Похожие торренты   Автор   Торрент   Размер 
В этой теме нет новых непрочитанных сообщений. Ночь в лесу / A Night in the Woods (Ричард Парри) [2011, ужасы, DVDRip] avo

Nickolas3435

35 | 6

733.49 МБ

В этой теме нет новых непрочитанных сообщений. Музей восковых фигур 2: Затерянные во времени / Waxwork II: Lost in Time [ужасы, фантастика, фэнтези, комедия, 1992] BDRip 1080p, Mvvo

salma3

44 | 52

13.85 ГБ

В этой теме нет новых непрочитанных сообщений. Затерянные в Тихом океане / Lost in the Pacific [триллер, приключения, 2016] WEBRip, Mvo

salma3

158 | 21

744.68 МБ

В этой теме нет новых непрочитанных сообщений. Затерянные в космосе / Lost in Space [фантастика, боевик, триллер, приключения, 1998] BDRip, Dub+Sub

salma3

193 | 14

1.46 ГБ

В этой теме нет новых непрочитанных сообщений. Затерянные в Тихом океане / Lost in the Pacific [фантастика, триллер, приключения, 2016] WEBRip 720p, Mvo

salma3

446 | 79

2.83 ГБ

В этой теме нет новых непрочитанных сообщений. Затерянные в космосе / Lost in Space [фантастика, боевик, триллер, приключения, 1998] BDRip 1080p, Dub+Sub

salma3

89 | 8

4.37 ГБ

В этой теме нет новых непрочитанных сообщений. Затерянные в тумане / Fogbound [драма, 2002] DVDRip, Dvo

salma3

7 | 2

1.37 ГБ


Начать новую тему Ответить на тему  [ 1 сообщение ] 




Для Мосгорсуда, Роскомнадзора и рекламодателей:: mosgorsud-torrent[собачка]yandex.ru