Торрент файл
скачать торрент магнет ссылка Добавлен: 02 фев 2015, 12:16
Размер: 2.67 ГБ
Сидеров: 4
Личеров: 2
Статус: (salma3)
Автор

СообщениеДобавлено: 02 фев 2015, 12:16 

Не в сети
Зам. Админа
Аватара пользователя
Дата регистрации:
02 дек 2010, 12:39
Спасибо: 12460 / 214
Сообщения: 27968
Год выхода: 2014
Жанр: Ужасы
Режиссер: Сет Гроссман
В ролях: Лара Восберг, Морган МакКлеллан, Кейт Уитни, Брайан Флаэрти, Коллин МакГрэнн, Кристофер Паркер, Эшли Саттон, Сьюзэн Атех, Ричард Уилкинсон, Сьюэлл Уитни

О фильме:
История о шестнадцатилетней девушке, бывшей отличнице, которая борется с наркозависимостью, но на самом деле страдает от чего-то куда более разрушительного…

Качество: WEB-DL[720p]
Видео: MPEG4/ISO/AVC, 1280х684, 23,976 кадра/сек, 3913  Кбит/сек
Аудио 1: Русский: АС3, 48 kHz, 2 ch, 192 kbps avg
Аудио 2: Английский: АС3, 48 kHz, 6 ch, 384 kbps avg    
Субтитры: Русские [tolmakoff ]
Дополнительно: Сохранены оригинальные чаптеры как на Blu-Ray
Продолжительность: 01:23:32
Перевод: Любительский (одноголосый) [Павел Морозов PashaUp]
Общее
Уникальный идентификатор : 213847435088207489438005153916125285595 (0xA0E1849390E54B7E97037251EF918CDB)
Полное имя : D:ТОРРЕНТЫInner.Demons.2014.WEB-DL.720p..mkv
Формат : Matroska
Версия формата : Version 4 / Version 2
Размер файла : 2,67 Гбайт
Продолжительность : 1 ч. 23 м.
Общий поток : 4580 Кбит/сек
Дата кодирования : UTC 2015-02-01 17:16:23
Программа кодирования : mkvmerge v7.5.0 ('Glass Culture') 64bit built on Jan 4 2015 16:48:44
Библиотека кодирования : libebml v1.3.1 + libmatroska v1.4.2

Видео
Идентификатор : 1
Формат : AVC
Формат/Информация : Advanced Video Codec
Профиль формата : High@L3.1
Параметр CABAC формата : Нет
Параметр ReFrames формата : 2 кадра
Идентификатор кодека : V_MPEG4/ISO/AVC
Продолжительность : 1 ч. 23 м.
Битрейт : 3913 Кбит/сек
Ширина : 1280 пикселей
Высота : 684 пикселя
Соотношение сторон : 1,85:1
Режим частоты кадров : Постоянный
Частота кадров : 23,976 кадра/сек
Цветовое пространство : YUV
Субдискретизация насыщенности : 4:2:0
Битовая глубина : 8 бит
Тип развёртки : Прогрессивная
Бит/(Пиксели*Кадры) : 0.186
Размер потока : 2,28 Гбайт (85%)
Язык : English
Default : Да
Forced : Нет
Основные цвета : BT.709
Характеристики трансфера : BT.709
Коэффициенты матрицы : BT.709

Аудио #1
Идентификатор : 2
Формат : AC-3
Формат/Информация : Audio Coding 3
Расширение режима : CM (complete main)
Параметр Endianness формата : Big
Идентификатор кодека : A_AC3
Продолжительность : 1 ч. 23 м.
Вид битрейта : Постоянный
Битрейт : 192 Кбит/сек
Каналы : 2 канала
Расположение каналов : Front: L R
Частота : 48,0 КГц
Битовая глубина : 16 бит
Метод сжатия : С потерями
Размер потока : 115 Мбайт (4%)
Заголовок : Павел Морозов
Язык : Russian
Default : Да
Forced : Да

Аудио #2
Идентификатор : 3
Формат : AC-3
Формат/Информация : Audio Coding 3
Расширение режима : CM (complete main)
Параметр Endianness формата : Big
Идентификатор кодека : A_AC3
Продолжительность : 1 ч. 23 м.
Вид битрейта : Постоянный
Битрейт : 384 Кбит/сек
Каналы : 6 каналов
Расположение каналов : Front: L C R, Side: L R, LFE
Частота : 48,0 КГц
Битовая глубина : 16 бит
Метод сжатия : С потерями
Размер потока : 230 Мбайт (8%)
Язык : English
Default : Нет
Forced : Нет

Текст #1
Идентификатор : 5
Формат : UTF-8
Идентификатор кодека : S_TEXT/UTF8
Идентификатор кодека/Информация : UTF-8 Plain Text
Заголовок : tolmakoff
Язык : Russian
Default : Нет
Forced : Нет

Меню
00:00:00.000 : en:1
00:11:38.000 : en:2
00:21:58.000 : en:3
00:31:16.000 : en:4
00:39:48.000 : en:5
00:49:56.000 : en:6
00:59:56.000 : en:7
01:10:06.000 : en:8
01:19:48.000 : en:9








реклама партнёра


Вернуться к началу
 Профиль  
 
   Похожие торренты   Автор   Торрент   Размер 
В этой теме нет новых непрочитанных сообщений. Демоны / Demons [ужасы, 1985] BDRip 720p, Mvo+Avo

salma3

24 | 8

4.92 ГБ

В этой теме нет новых непрочитанных сообщений. Демоны / Demons / Dèmoni [Ужасы, 1985] DVD5, Mvo

salma3

10 | 3

4.37 ГБ

В этой теме нет новых непрочитанных сообщений. Демоны / Demons [ужасы, 1985] BDRemux 1080p, MVo+Avo+Sub

salma3

0 | 44

16.97 ГБ

В этой теме нет новых непрочитанных сообщений. Демоны Да Винчи / Da Vinci's Demons [03х01-10 из 10] (Майкл Дж. Бассетт, Дэвид С. Гойер, Пол Вильшурст) [Драма, Приключения, 2015] HDTVRip 720p, Mvo [AlexFilm]

Dracon

26 | 36

12.76 ГБ

В этой теме нет новых непрочитанных сообщений. Демоны Да Винчи / Da Vinci's Demons [S01-03] (Майкл Дж. Бассетт, Дэвид С. Гойер, Пол Вильшурст) [2013-2015, Драма, Приключения, HDTVRip 720p | AlexFilm]

Dracon

16 | 89

49.8 ГБ

В этой теме нет новых непрочитанных сообщений. Демоны Да Винчи / Da Vinci's Demons [03] (Майкл Дж. Бассетт, Дэвид С. Гойер, Пол Вильшурст) [Драма, Приключения, 2015] HDTVRip 720p [Cold Film]

Dracon

737 | 524

17.9 ГБ

В этой теме нет новых непрочитанных сообщений. Демоны да Винчи / Da Vinci's Demons [Season 1-2, episodes 1-18 of 18] (Майкл Дж. Бассетт, Дэвид С. Гойер, Джэми Пэйн) [драма, приключения, 2013-2014] WEB-DLRip, Mvo

Dracon

3 | 5

12.71 ГБ


Начать новую тему Ответить на тему  [ 1 сообщение ] 




Для Мосгорсуда, Роскомнадзора и рекламодателей:: mosgorsud-torrent[собачка]yandex.ru