Торрент файл
скачать торрент магнет ссылка Добавлен: 01 фев 2015, 16:35
Размер: 748.38 МБ
Сидеров: 8
Личеров: 2
Статус: (salma3)
Автор

СообщениеДобавлено: 01 фев 2015, 16:35 

Не в сети
Зам. Админа
Аватара пользователя
Дата регистрации:
02 дек 2010, 12:39
Спасибо: 12461 / 214
Сообщения: 27968
Год выхода: 2014
Жанр: Драма, мелодрама
Режиссер: Майкл Хоффман
В ролях: Мишель Монахэн, Джеймс Марсден, Люк Брейси, Лиана Либерато, Джералд МакРэйни, Кэролайн Гудолл, Кларк Питерс, Себастьян Арселус, Джон Тенни, Шон Бриджерс и др.

О фильме:
История о двух бывших возлюбленных подростках. Никто из них не жил жизнью, которую они представляли и никто не может забыть страстную первую любовь, которая изменила всю жизнь. И вот обоих зовут на похороны их наставника, который когда-то дал им приют…

  

Качество: HDRip
Видео: XviD,640x272 , 23.976 fps, ~751 Kbit/s
Аудио: 48 kHz, MPEG Layer 3, 2 ch, ~128.00 kbps avg
Продолжительность: 01:57:48
Перевод: Дублированный [Лицензия]

Полное имя                               : G:Luchshee.vo.mne.2014.D.HDRip.avi
Формат                                   : AVI
Формат/Информация                        : Audio Video Interleave
Размер файла                             : 748 Мбайт
Продолжительность                        : 1 ч. 57 м.
Общий поток                              : 888 Кбит/сек
Программа кодирования                    : VirtualDubMod 1.5.10.3 | http://www.virtualdub-fr.org || (build 2550/release)
Библиотека кодирования                   : VirtualDubMod build 2550/release

Видео
Идентификатор                            : 0
Формат                                   : MPEG-4 Visual
Профиль формата                          : Advanced Simple@L5
Параметр BVOP формата                    : 1
Параметр QPel формата                    : Нет
Параметр GMC формата                     : Без точки перехода
Параметр матрицы формата                 : Выборочная
Идентификатор кодека                     : XVID
Идентификатор кодека/Подсказка           : XviD
Продолжительность                        : 1 ч. 57 м.
Битрейт                                  : 751 Кбит/сек
Ширина                                   : 640 пикселей
Высота                                   : 272 пикселя
Соотношение сторон                       : 2,35:1
Частота кадров                           : 23,976 кадра/сек
Цветовое пространство                    : YUV
Субдискретизация насыщенности            : 4:2:0
Битовая глубина                          : 8 бит
Тип развёртки                            : Прогрессивная
Метод сжатия                             : С потерями
Бит/(Пиксели*Кадры)                      : 0.180
Размер потока                            : 633 Мбайт (85%)
Библиотека кодирования                   : XviD 73

Аудио
Идентификатор                            : 1
Формат                                   : MPEG Audio
Версия формата                           : Version 1
Профиль формата                          : Layer 3
Идентификатор кодека                     : 55
Идентификатор кодека/Подсказка           : MP3
Продолжительность                        : 1 ч. 57 м.
Вид битрейта                             : Постоянный
Битрейт                                  : 128 Кбит/сек
Каналы                                   : 2 канала
Частота                                  : 48,0 КГц
Метод сжатия                             : С потерями
Размер потока                            : 108 Мбайт (14%)
Выравнивание                             : Соединение по промежуткам
Продолжительность промежутка             : 42  мс. (1,00 видеокадр)
Время предзагрузки промежутка            : 504  мс.
Библиотека кодирования                   : LAME3.99r
Настройки программы                      : -m s -V 4 -q 2 -lowpass 17 -b 128














реклама партнёра


Вернуться к началу
 Профиль  
 
   Похожие торренты   Автор   Торрент   Размер 
В этой теме нет новых непрочитанных сообщений. Лучшее во мне /  The Best of Me (Майкл Хоффман) [Драма, Мелодрама, 2014] HDRip, Dub [iTunes]

Dracon

6 | 3

1.46 ГБ

В этой теме нет новых непрочитанных сообщений. Лучшее во мне / The Best of Me (Майкл Хоффман) [драма, мелодрама, 2014] BDRip 720p, Dub [iTunes]

Dracon

5 | 3

5.78 ГБ

В этой теме нет новых непрочитанных сообщений. Цимбелин / Cymbeline (Майкл Алмерейда) [драма, 2014] HDRip, Dub [Лицензия]

Dracon

22 | 1

2.05 ГБ

В этой теме нет новых непрочитанных сообщений. Цимбелин / Cymbeline (Майкл Алмерейда) [драма, 2014] HDRip, Dub [Лицензия]

Dracon

509 | 31

1.46 ГБ

В этой теме нет новых непрочитанных сообщений. Голгофа / Calvary (Джон Майкл МакДона) [2014, Драма, комедия, HDRip | Лицензия] mvo

Nickolas3435

1015 | 18

2.05 ГБ

В этой теме нет новых непрочитанных сообщений. Убить гонца / Kill the Messenger (Майкл Куэста) [боевик, триллер, драма, 2014] HDRip, Dub [лицензия]

Dracon

7 | 0

1.46 ГБ

В этой теме нет новых непрочитанных сообщений. А вот и она / And So It Goes [драма, мелодрама, комедия, 2014] HDRip, Dub [лицензия]

Dracon

1048 | 25

1.46 ГБ


Начать новую тему Ответить на тему  [ 1 сообщение ] 




Для Мосгорсуда, Роскомнадзора и рекламодателей:: mosgorsud-torrent[собачка]yandex.ru
cron