Торрент файл
скачать торрент магнет ссылка Добавлен: 23 янв 2015, 21:45
Размер: 745 МБ
Сидеров: 134
Личеров: 3
Статус: (salma3)
Автор

СообщениеДобавлено: 23 янв 2015, 21:45 

Не в сети
Зам. Админа
Аватара пользователя
Дата регистрации:
02 дек 2010, 12:39
Спасибо: 12461 / 214
Сообщения: 27968
Год выпуска: 2014
Страна: США, Россия
Жанр: триллер, криминал, драма, боевик
Продолжительность: 91 мин. / 01:30:53
Перевод: Авторский (одноголосый, закадровый) А.Яковлев
Субтитры: отсутствуют

Режиссер: Сарик Андреасян
Продюссер: Тоув Кристенсен, Георгий Малков, Сарик Андреасян
Сценарий: Рауль Инглис

В ролях: Хейден Кристенсен, Эдриан Броуди, Джордана Брюстер, Эйкон, Тори Киттлз, Луис Да Силва мл., Лэнс Э. Николс, Джон МакКоннелл, Джо Крест, Аарон В. Уильямсон, Александр Гаврилин, Юрий Деркач, Ирина Киреева, Михаил Белякович, Илья Исаев

Описание: У Джеймса темное прошлое, но сейчас он из всех сил пытается изменить свою жизнь — встречается с красивой девушкой, устроился работать автомехаником, мечтает о собственном бизнесе. Тем временем, его старший брат Френки, отсидевший десять лет в тюрьме, выходит на свободу. Френки пытается наладить отношения, но Джеймс не может простить брата за то, что много лет назад он втянул его в криминал, из-за чего Джеймс отсидел шестнадцать месяцев.Однако попытки Джеймса начать новую жизнь не складываются: из-за тюремного прошлого он не может рассчитывать на хорошую работу и получает отказы в кредитовании своего бизнеса. Видя это, Френки предлагает Джеймсу «провести небольшое дельце». Он клянется, что это в последний раз и после ограбления банка в Новом Орлеане у них будут деньги, и они вернут свою жизнь, которую когда-то потеряли. В результате «небольшое дельце» станет одним из самых кровавых и драматических налетов в истории Америки...

Качество: WEB-DLRip
Формат: AVI
Видео кодек: XviD
Аудио кодек: MP3
Видео: MPEG4, XviD, 720x304 (2.35:1), 25.000 fps, 1 008 Kbps (0.184 bit/pixel)
Аудио: MP3, 48.0 KHz, 2 ch, 128 Kbps, CBR
Сэмпл


Формат : AVI
Формат/Информация : Audio Video Interleave
Размер файла : 745 Мбайт
Продолжительность : 1 ч. 30 м.
Общий поток : 1146 Кбит/сек
Программа кодирования : VirtualDubMod 1.5.10.3 | http://www.virtualdub-fr.org || (build 2550/release)
Библиотека кодирования : VirtualDubMod build 2550/release

Видео
Идентификатор : 0
Формат : MPEG-4 Visual
Профиль формата : Advanced Simple@L5
Параметр BVOP формата : 1
Параметр QPel формата : Нет
Параметр GMC формата : Без точки перехода
Параметр матрицы формата : Default (MPEG)
Идентификатор кодека : XVID
Идентификатор кодека/Подсказка : XviD
Продолжительность : 1 ч. 30 м.
Битрейт : 1008 Кбит/сек
Ширина : 720 пикселей
Высота : 304 пикселя
Соотношение сторон : 2,35:1
Частота кадров : 25,000 кадров/сек
Цветовое пространство : YUV
Субдискретизация насыщенности : 4:2:0
Битовая глубина : 8 бит
Тип развёртки : Прогрессивная
Метод сжатия : С потерями
Бит/(Пиксели*Кадры) : 0.184
Размер потока : 655 Мбайт (88%)
Библиотека кодирования : XviD 73

Аудио
Идентификатор : 1
Формат : MPEG Audio
Версия формата : Version 1
Профиль формата : Layer 3
Идентификатор кодека : 55
Идентификатор кодека/Подсказка : MP3
Продолжительность : 1 ч. 30 м.
Вид битрейта : Постоянный
Битрейт : 128 Кбит/сек
Каналы : 2 канала
Частота : 48,0 КГц
Метод сжатия : С потерями
Размер потока : 83,2 Мбайт (11%)
Выравнивание : Соединение по промежуткам
Продолжительность промежутка : 40 мс. (1,00 видеокадр)
Время предзагрузки промежутка : 504 мс.
Библиотека кодирования : LAME3.99r
Настройки программы : -m s -V 4 -q 2 -lowpass 17 -b 128




реклама партнёра


Вернуться к началу
 Профиль  
 
   Похожие торренты   Автор   Торрент   Размер 
В этой теме нет новых непрочитанных сообщений. Ограбление по-американски / American Heist (Сарик Андреасян) [триллер, криминал, драма, 2014] WEB-DLRip 720p, dub [Звук с TS]

Dracon

40 | 3

2.99 ГБ

В этой теме нет новых непрочитанных сообщений. Ограбление по-американски / American Heist (Сарик Андреасян) [триллер, криминал, драма, 2014] HDRip, dub [Чистый звук]

Dracon

365 | 16

1.37 ГБ

В этой теме нет новых непрочитанных сообщений. Ограбление по-американски / American Heist (Сарик Андреасян) [триллер, криминал, драма, 2014] BDRip 720p, dub [Чистый звук]

Dracon

22 | 2

4.97 ГБ

В этой теме нет новых непрочитанных сообщений. Ограбление по-американски / American Heist (Сарик Андреасян) [триллер, криминал, драма, 2014] BDRip 1080p, dub [Чистый звук]

Dracon

27 | 3

11.28 ГБ

В этой теме нет новых непрочитанных сообщений. Что творят мужчины! 2 (Сарик Андреасян) [Комедия, 2015] Web-DLRip

Dracon

277 | 12

1.37 ГБ

В этой теме нет новых непрочитанных сообщений. Что творят мужчины! 2 (Сарик Андреасян) [Комедия, 2015] WEB-DL 720p

Dracon

11 | 4

2.63 ГБ

В этой теме нет новых непрочитанных сообщений. Что творят мужчины! 2 (Сарик Андреасян) [Комедия, 2015] WEB-DL 1080p

Dracon

86 | 6

3.07 ГБ


Начать новую тему Ответить на тему  [ 1 сообщение ] 




Для Мосгорсуда, Роскомнадзора и рекламодателей:: mosgorsud-torrent[собачка]yandex.ru