Торрент файл
скачать торрент магнет ссылка Добавлен: 20 янв 2015, 04:25
Размер: 744.79 МБ
Сидеров: 667
Личеров: 50
Статус: (salma3)
Автор

СообщениеДобавлено: 20 янв 2015, 04:25 

Не в сети
Супермодератор
Аватара пользователя
Дата регистрации:
06 июн 2014, 07:51
Спасибо: 576 / 0
Сообщения: 2002
Информация о фильме
Название: Царь скорпионов 4: Утерянный трон
Оригинальное название: The Scorpion King: The Lost Throne
Год выхода: 2015
Жанр: боевик
Режиссер: Майк Эллиот
В ролях: Ройс Грейси, Эсме Бьянко, Майкл Бин, Бэрри Боствик, Стивен Данливи, Грант Эллиотт, Лу Ферриньо, Ли Гилл, Роджер Халстон, Брэндон Хардести

О фильме:
В очередной киноленте про «Царя скорпионов» увидим мы как от своего трона отстранённый король-воин Матайюс решение принимает отправиться на страшное самое и ужасное задание жизни своей . Все это Матайюс сделать решает ради того, чтобы мир на земле его снова возродился. Все вроде бы своим шло чередом, но однажды от Матайюса его самый близкий отворачивается и лучший друг, такого никак он не мог предвидеть. Теперь самолично герой должен страшному противостоять злодею, который на все готов только бы убить его. Сможет ли Матайюс, все свои приложив силы, своему противнику противостоять ?! И добьётся ли герой наш того, ради чего отважился он на битву эту , наступит ли на его земле умиротворение?



Страна: США
Продолжительность: 01:44:51
Перевод: Любительское (многоголосное) [BaiBaKo]

Файл
Кодек: XviD
Качество: НDRip (Исх. BDRip 720p)
Видео: 624x352 (1.77:1), 23.976 fps, XviD build 73 ~856 kbps avg, 0.16 bit/pixel
Звук: 48 kHz, MPEG Layer 3, 2 ch, ~128.00 kbps avg
Субтитры: нет
Семпл

Общее
Полное имя : S:ФильмыЦарь скорпионов 4. Утерянный трон. 2015. HDRip. (AleksSin).avi
Формат : AVI
Формат/Информация : Audio Video Interleave
Размер файла : 745 Мбайт
Продолжительность : 1 ч. 44 м.
Общий поток : 993 Кбит/сек
Программа кодирования : VirtualDubMod 1.5.10.3 | http://www.virtualdub-fr.org || (build 2550/release)
Библиотека кодирования : VirtualDubMod build 2550/release
Видео
Идентификатор : 0
Формат : MPEG-4 Visual
Профиль формата : Advanced Simple@L5
Параметр BVOP формата : 1
Параметр QPel формата : Нет
Параметр GMC формата : Без точки перехода
Параметр матрицы формата : Выборочная
Идентификатор кодека : XVID
Идентификатор кодека/Подсказка : XviD
Продолжительность : 1 ч. 44 м.
Битрейт : 856 Кбит/сек
Ширина : 624 пикс.
Высота : 352 пикс.
Соотношение сторон : 16:9
Частота кадров : 23,976 кадр/сек
Цветовое пространство : YUV
Подвыборка цветности : 4:2:0
Битовая глубина : 8 бит
Тип развёртки : Прогрессивная
Метод сжатия : С потерями
Бит/(Пиксели*Кадры) : 0.162
Размер потока : 642 Мбайт (86%)
Библиотека кодирования : XviD 73
Аудио
Идентификатор : 1
Формат : MPEG Audio
Версия формата : Version 1
Профиль формата : Layer 3
Идентификатор кодека : 55
Идентификатор кодека/Подсказка : MP3
Продолжительность : 1 ч. 44 м.
Вид битрейта : Постоянный
Битрейт : 128 Кбит/сек
Каналы : 2 канала
Частота : 48,0 КГц
Метод сжатия : С потерями
Размер потока : 96,0 Мбайт (13%)
Выравнивание : Соединение по промежуткам
Продолжительность промежутка : 42 мс. (1,00 видеокадр)
Время предзагрузки промежутка : 504 ms
Библиотека кодирования : LAME3.99r
Настройки программы : -m s -V 4 -q 2 -lowpass 17 -b 128




реклама партнёра


Вернуться к началу
 Профиль Отправить личное сообщение  
 
   Похожие торренты   Автор   Торрент   Размер 
В этой теме нет новых непрочитанных сообщений. Царь скорпионов 4: Утерянный трон / The Scorpion King: The Lost Throne (Майк Эллиот) [Приключения, боевик, 2015] HDRip [BaibaKo]

Dracon

61 | 5

2.05 ГБ

В этой теме нет новых непрочитанных сообщений. Царь скорпионов 4: Утерянный трон / The Scorpion King: The Lost Throne (Майк Эллиот) [Приключения, боевик, 2015] HDRip [BaibaKo]

Dracon

35 | 5

1.39 ГБ

В этой теме нет новых непрочитанных сообщений. Царь скорпионов 4: Утерянный трон / The Scorpion King: The Lost Throne (Майк Эллиот) [Приключения, боевик, 2015] Blu-Ray [BaibaKo]

Dracon

1 | 4

39.31 ГБ

В этой теме нет новых непрочитанных сообщений. Царь скорпионов 4: Утерянный трон / The Scorpion King: The Lost Throne (Майк Эллиот) [Приключения, боевик, 2015] BDRip 1080p [BaibaKo]

Dracon

46 | 10

7.93 ГБ

В этой теме нет новых непрочитанных сообщений. Царь скорпионов 4: Утерянный трон / The Scorpion King: The Lost Throne (Майк Эллиот) [Приключения, боевик, 2015] BDRip 720p [BaibaKo]

Dracon

22 | 4

5.74 ГБ

В этой теме нет новых непрочитанных сообщений. Лига Справедливости: Трон Атлантиды / Justice League: Throne of Atlantis (Джей Олива, Этан Сполдинг) [боевик, приключения, 2015] HDRip, mvo

Dracon

43 | 2

1.37 ГБ

В этой теме нет новых непрочитанных сообщений. Лига Справедливости: Трон Атлантиды / Justice League: Throne of Atlantis (Джей Олива, Этан Сполдинг) [мультфильм, боевик, приключения, 2015] HDRip, mvo [Чистый звук]

Dracon

56 | 3

1.37 ГБ


СообщениеДобавлено: 24 янв 2015, 20:06 

Не в сети
Дата регистрации:
02 май 2013, 21:59
Спасибо: 0 / 0
Сообщения: 53
А web-rip будет


Вернуться к началу
 Профиль Отправить личное сообщение  
 
Начать новую тему Ответить на тему  [ Сообщений: 2 ] 




Для Мосгорсуда, Роскомнадзора и рекламодателей:: mosgorsud-torrent[собачка]yandex.ru