Торрент файл
скачать торрент магнет ссылка Добавлен: 19 янв 2015, 12:55
Размер: 1.46 ГБ
Сидеров: 116
Личеров: 8
Статус: (salma3)
Автор

СообщениеДобавлено: 19 янв 2015, 12:55 

Не в сети
Супермодератор
Аватара пользователя
Дата регистрации:
15 фев 2012, 16:44
Возраст: 27
Спасибо: 5139 / 2090
Сообщения: 17432
Грабеж / Heist

Год выхода: 2001
Жанр: Триллер, криминал
Режиссер: Дэвид Мэмет / David Mamet

В ролях: Джин Хэкмен, Дэнни ДеВито, Делрой Линдо, Сэм Рокуэлл, Ребекка Пиджон, Рикки Джей, Пэтти ЛюПон, Alan Bilzerian, Ричард Л. Фридман, Роберт Люббьер

О фильме:
У Джо Мура есть все — красивая молодая жена, деньги, которые ему должны, и работа, которую он любит. Он — вор. Его работа накрывается медным тазом тогда, когда его застукивают при помощи охранной камеры. Его соперник, Бергман шантажирует его, требуя простить долг, а его жена уходит к новичку — другу Бергмана. Мур, его партнер, Бобби Блан и их связной Пинки Пинкус вынуждены собрать команду, которая сделает ограбление по заказу Бергмана, и которое станет последним в карьере Мура.

Страна: Канада, США
Продолжительность: 01:49:02
Перевод: [color=green]Профессиональный (двухголосый закадровый) [R5]

Файл
Качество: WEB-DLRip
Формат файла: AVI
Видео кодек: XviD
Аудио кодек: AC3
Видео: 704x400, 23.976 fps, XviD build 73 ~1464 kbps
Звук: 48 kHz, AC3 Dolby Digital, 3/2 (L,C,R,l,r) + LFE ch, ~448 kbps

Общее
Полное имя : Heist.2001.WEB-DLRip.avi
Формат : AVI
Формат/Информация : Audio Video Interleave
Размер файла : 1,46 Гбайт
Продолжительность : 1 ч. 49 м.
Общий поток : 1921 Кбит/сек
Программа кодирования : VirtualDubMod 1.5.10.3 | http://www.virtualdub-fr.org || (build 2550/release)
Библиотека кодирования : VirtualDubMod build 2550/release

Видео
Идентификатор : 0
Формат : MPEG-4 Visual
Профиль формата : Advanced Simple@L5
Параметр BVOP формата : 1
Параметр QPel формата : Нет
Параметр GMC формата : Без точки перехода
Параметр матрицы формата : Выборочная
Идентификатор кодека : XVID
Идентификатор кодека/Подсказка : XviD
Продолжительность : 1 ч. 49 м.
Битрейт : 1464 Кбит/сек
Ширина : 704 пикс.
Высота : 400 пикс.
Соотношение сторон : 16:9
Частота кадров : 23,976 кадр/сек
Цветовое пространство : YUV
Подвыборка цветности : 4:2:0
Битовая глубина : 8 бит
Тип развёртки : Прогрессивная
Метод сжатия : С потерями
Бит/(Пиксели*Кадры) : 0.217
Размер потока : 1,11 Гбайт (76%)
Библиотека кодирования : XviD 73

Аудио
Идентификатор : 1
Формат : AC-3
Формат/Информация : Audio Coding 3
Расширение режима : CM (complete main)
Идентификатор кодека : 2000
Продолжительность : 1 ч. 48 м.
Вид битрейта : Постоянный
Битрейт : 448 Кбит/сек
Канал(ы) : 6 канала(ов)
Расположение каналов : Front: L C R, Side: L R, LFE
Частота : 48,0 КГц
Битовая глубина : 16 бит
Метод сжатия : С потерями
Размер потока : 349 Мбайт (23%)
Выравнивание : Разделение по промежуткам
Продолжительность промежутка : 42 мс. (1,00 видеокадр)
Время предзагрузки промежутка : 500 ms


Релиз от: Leon-masl


_________________



реклама партнёра


Вернуться к началу
 Профиль Отправить личное сообщение  
 
   Похожие торренты   Автор   Торрент   Размер 
В этой теме нет новых непрочитанных сообщений. Ограбление по-американски / American Heist (Сарик Андреасян) [триллер, криминал, драма, 2014] WEB-DLRip, Avo

Dracon

134 | 3

745 МБ

В этой теме нет новых непрочитанных сообщений. Ограбление по-американски / American Heist (Сарик Андреасян) [триллер, криминал, драма, 2014] WEB-DLRip 720p, dub [Звук с TS]

Dracon

40 | 3

2.99 ГБ

В этой теме нет новых непрочитанных сообщений. Скорость: Автобус 657 / Heist (Скотт Манн) [боевик, триллер, 2015] WEB-DLRip, dub [Чистый звук]

Dracon

11938 | 4460

1.38 ГБ

В этой теме нет новых непрочитанных сообщений. Один дома 5: Один в темноте / Home Alone: The Holiday Heist [комедия, криминал, семейный, 2012] WEB-DLRip, Mvo [BaiBako]

salma3

1714 | 117

1.46 ГБ

В этой теме нет новых непрочитанных сообщений. Последняя истина / True Blue [триллер, драма, криминал, 2001] WEB-DLRip, Mvo

salma3

12 | 3

1.47 ГБ

В этой теме нет новых непрочитанных сообщений. Ограбление по-американски / American Heist (Сарик Андреасян) [триллер, криминал, драма, 2014] HDRip, dub [Чистый звук]

Dracon

365 | 16

1.37 ГБ

В этой теме нет новых непрочитанных сообщений. Ограбление по-американски / American Heist (Сарик Андреасян) [триллер, криминал, драма, 2014] BDRip 720p, dub [Чистый звук]

Dracon

22 | 2

4.97 ГБ


Начать новую тему Ответить на тему  [ 1 сообщение ] 




Для Мосгорсуда, Роскомнадзора и рекламодателей:: mosgorsud-torrent[собачка]yandex.ru