Торрент файл
скачать торрент магнет ссылка Добавлен: 15 янв 2015, 02:01
Размер: 1.45 ГБ
Сидеров: 5137
Личеров: 180
Статус: (salma3)
Автор

СообщениеДобавлено: 15 янв 2015, 02:01 

Не в сети
Супермодератор
Аватара пользователя
Дата регистрации:
06 июн 2014, 07:51
Спасибо: 577 / 0
Сообщения: 2002
Информация о фильме
Название: Поводырь
Оригинальное название: Поводир
Год выхода: 2014
Жанр: военный, драма, приключения
Режиссер: Олесь Санин
В ролях: Джефф Баррелл, Станислав Боклан, Антон Святослав Грин, Ирина Санина, Александр Кобзарь, Андрей Билоус, Федор Стригун, Олег Примогенов, Джамала, Максим Стоялов

О фильме:
Украина, тридцатые годы. Американский инженер Майкл Шемрок вместе с сыном приезжает в Харьков помогать строить социализм. Здесь он влюбляется в актрису Ольгу Левицкую, на которую давно положил глаз красный комиссар. При трагических обстоятельствах американец погибает, а его сына спасает от преследователей слепой кобзарь. Не имея других шансов выжить на чужбине, парень становится поводырем. Их путешествие, полное опасных приключений, происходит на фоне драматических страниц украинской истории и разрушения человеческих судеб. Фильм о любви, верности, подлости и предательстве.

Страна: Украина
Продолжительность: 02:04:01
Язык: Русский, украинский, английский (диалоги на трёх языках)

Файл
Кодек: XviD
Качество: DVDscr
Видео: MPEG4, XviD, 720x304 (2.35:1), 24.000 fps, 1 471 Kbps (0.280 bit/pixel)
Звук: AC-3, 48.0 KHz, 2 ch, 192 Kbps, CBR



General
Complete name : Поводырь.avi
Format : AVI
Format/Info : Audio Video Interleave
File size : 1.45 GiB
Duration : 2h 4mn
Overall bit rate : 1 672 Kbps
Writing application : VirtualDubMod 1.5.10.3 | http://www.virtualdub-fr.org || (build 2550/release)
Writing library : VirtualDubMod build 2550/release

Video
ID : 0
Format : MPEG-4 Visual
Format profile : Advanced Simple@L5
Format settings, BVOP : 1
Format settings, QPel : No
Format settings, GMC : No warppoints
Format settings, Matrix : Default (MPEG)
Codec ID : XVID
Codec ID/Hint : XviD
Duration : 2h 4mn
Bit rate : 1 471 Kbps
Width : 720 pixels
Height : 304 pixels
Display aspect ratio : 2.35:1
Frame rate : 24.000 fps
Color space : YUV
Chroma subsampling : 4:2:0
Bit depth : 8 bits
Scan type : Progressive
Compression mode : Lossy
Bits/(Pixel*Frame) : 0.280
Stream size : 1.27 GiB (88%)
Writing library : XviD 65

Audio
ID : 1
Format : AC-3
Format/Info : Audio Coding 3
Mode extension : CM (complete main)
Format settings, Endianness : Big
Codec ID : 2000
Duration : 2h 4mn
Bit rate mode : Constant
Bit rate : 192 Kbps
Channel(s) : 2 channels
Channel positions : Front: L R
Sampling rate : 48.0 KHz
Bit depth : 16 bits
Compression mode : Lossy
Stream size : 170 MiB (11%)
Alignment : Split accross interleaves
Interleave, duration : 42 ms (1.00 video frame)
Interleave, preload duration : 500 ms




реклама партнёра


Вернуться к началу
 Профиль Отправить личное сообщение  
 
   Похожие торренты   Автор   Торрент   Размер 
В этой теме нет новых непрочитанных сообщений. Ярость / Fury [боевик, драма, военный, 2014] DVDScr, Avo

Dracon

24 | 2

2.16 ГБ

В этой теме нет новых непрочитанных сообщений. Несломленный / Unbroken (Анджелина Джоли) [драма, военный, биография, спорт, 2014] DVDScr, dvo

Dracon

42 | 3

1.37 ГБ

В этой теме нет новых непрочитанных сообщений. Снайпер / American Sniper (Клинт Иствуд) [боевик, драма, военный, биография, 2014] DVDScr, dvo

Dracon

2002 | 73

2.05 ГБ

В этой теме нет новых непрочитанных сообщений. Снайпер / American Sniper (Клинт Иствуд) [боевик, драма, военный, биография, 2014] DVDScr, Mvo

Dracon

32 | 3

2.05 ГБ

В этой теме нет новых непрочитанных сообщений. Снайпер / American Sniper (Клинт Иствуд) [боевик, драма, военный, биография, 2014] DVDScr, Mvo

Dracon

57 | 3

1.46 ГБ

В этой теме нет новых непрочитанных сообщений. Снайпер / American Sniper (Клинт Иствуд) [боевик, драма, военный, биография, 2014] DVDScr, dvo

Dracon

3325 | 141

1.46 ГБ

В этой теме нет новых непрочитанных сообщений. Игра в имитацию / The Imitation Game (Мортен Тильдум) [триллер, драма, военный, биография, 2014] DVDScr, dvo

Dracon

32 | 3

2.04 ГБ


Начать новую тему Ответить на тему  [ 1 сообщение ] 




Для Мосгорсуда, Роскомнадзора и рекламодателей:: mosgorsud-torrent[собачка]yandex.ru