Торрент файл
скачать торрент магнет ссылка Добавлен: 14 янв 2015, 15:54
Размер: 1.37 ГБ
Сидеров: 19
Личеров: 2
Статус: (salma3)
Автор

СообщениеДобавлено: 14 янв 2015, 15:54 

Не в сети
Зам. Админа
Аватара пользователя
Дата регистрации:
02 дек 2010, 12:39
Спасибо: 12461 / 214
Сообщения: 27968
Год выхода: 2014
Жанр: Драма, вестерн
Режиссер: Кристиан Левринг
В ролях: Мадс Миккелсен, Ева Грин, Джеффри Дин Морган, Эрик Кантона, Микаэл Персбрандт, Дуглас Хеншэлл, Майкл Рэймонд-Джеймс, Джонатан Прайс, Александр Арнольд, Нанна Оланд Фабрициус

О фильме:
Джон, фермер, чья семья убита, дает клятву отомстить, выслеживает и наказывает убийцу. Его действия запускают цепочку насилия: лидер местной банды со своими напарниками решает расправиться с Джоном и его деревней.



Качество: HDRip
Видео: XviD, 720x304, 25.000 fps, 1832 Kbps
Аудио: 48 kHz, AC3, 2 ch, 384 kbps
Продолжительность: 01:27:56
Перевод: Дублированный  (Чистый звук)
G:Спасение 2014  ДБ (Line)  HDRip.avi
   General
      Complete name : G:Спасение 2014  ДБ (Line)  HDRip.avi
      Format : AVI
      Format/Info : Audio Video Interleave
      File size : 1.37 GiB
      Duration : 1h 27mn
      Overall bit rate : 2 226 Kbps
      Writing application : VirtualDubMod 1.5.10.2 (build 2540/release)
      Writing library : VirtualDubMod build 2540/release
   Video #0
      ID : 0
      Format : MPEG-4 Visual
      Format profile : Advanced Simple@L5
      Format settings, BVOP : 2
      Format settings, QPel : No
      Format settings, GMC : No warppoints
      Format settings, Matrix : Default (MPEG)
      Codec ID : XVID
      Codec ID/Hint : XviD
      Duration : 1h 27mn
      Bit rate : 1 832 Kbps
      Width : 720 pixels
      Height : 304 pixels
      Display aspect ratio : 2.35:1
      Frame rate : 25.000 fps
      Color space : YUV
      Chroma subsampling : 4:2:0
      Bit depth : 8 bits
      Scan type : Progressive
      Compression mode : Lossy
      Bits/(Pixel*Frame) : 0.335
      Stream size : 1.13 GiB (82%)
      Writing library : XviD 1.2.1 (UTC 2008-12-04)
   Audio #1
      ID : 1
      Format : AC-3
      Format/Info : Audio Coding 3
      Mode extension : CM (complete main)
      Format settings, Endianness : Big
      Codec ID : 2000
      Duration : 1h 27mn
      Bit rate mode : Constant
      Bit rate : 384 Kbps
      Channel(s) : 2 channels
      Channel positions : Front: L R
      Sampling rate : 48.0 KHz
      Bit depth : 16 bits
      Compression mode : Lossy
      Stream size : 242 MiB (17%)
      Alignment : Split accross interleaves
      Interleave, duration : 40 ms (1.00 video frame)
      Interleave, preload duration : 500 ms








реклама партнёра


Вернуться к началу
 Профиль  
 
   Похожие торренты   Автор   Торрент   Размер 
В этой теме нет новых непрочитанных сообщений. Спасение / The Salvation (Кристиан Левринг) [драма, вестерн, 2014] HDRip, dub [Чистый звук]

Dracon

3 | 2

699.74 МБ

В этой теме нет новых непрочитанных сообщений. Спасение / The Salvation (Кристиан Левринг) [драма, вестерн, 2014] BDRip 720p, dub+sub [Чистый звук]

Dracon

7 | 3

4.84 ГБ

В этой теме нет новых непрочитанных сообщений. Спасение / The Salvation (Кристиан Левринг) [2014, драма, вестерн, HDRip | Сербин] avo

Nickolas3435

108 | 5

1.46 ГБ

В этой теме нет новых непрочитанных сообщений. Спасение / The Salvation (Кристиан Левринг) [драма, вестерн, 2014] HDRip, Dub [Лицензия]

Dracon

0 | 0

1.37 ГБ

В этой теме нет новых непрочитанных сообщений. Спасение / The Salvation (Кристиан Левринг) [драма, вестерн, 2014] BDRip 1080p, Sub+Dub [Лицензия]

Dracon

225 | 6

12.72 ГБ

В этой теме нет новых непрочитанных сообщений. Спасение / The Salvation (Кристиан Левринг) [драма, вестерн, 2014] BDRip 720p, Avo+Sub+Dub [Лицензия]

Dracon

378 | 12

7.01 ГБ

В этой теме нет новых непрочитанных сообщений. Спасение / The Salvation [драма, вестерн, 2014] HDRip, Avo

Dracon

1298 | 31

1.46 ГБ


Начать новую тему Ответить на тему  [ 1 сообщение ] 




Для Мосгорсуда, Роскомнадзора и рекламодателей:: mosgorsud-torrent[собачка]yandex.ru