Торрент файл
скачать торрент магнет ссылка Добавлен: 14 янв 2015, 12:14
Размер: 2.88 ГБ
Сидеров: 70
Личеров: 5
Статус: (salma3)
Автор

СообщениеДобавлено: 14 янв 2015, 12:14 

Не в сети
Супермодератор
Аватара пользователя
Дата регистрации:
15 фев 2012, 16:44
Возраст: 27
Спасибо: 5143 / 2090
Сообщения: 17513
Год выхода: 1986
Жанр: Фантастика, боевик
Режиссер: Серджо Мартино
В ролях: Дэниэл Грин, Джанет Агрен, Джон Сэксон, Клаудио Кассинелли, Джордж Истмен, Роберто Бизакко, Пэт Монти, Андреа Коппола, Дональд О’Брайэн, Фрэнк Уолден, Дарвин Суолв, Эми Верба

О фильме:
В недалеком будущем Земля окажется на грани экологической катастрофы, а могущественные транснациональные корпорации продолжают загрязнять окружающую среду. Против них восстает движение «зеленых» во главе с Артуром Мозели. Тогда глава одной из корпораций, Френсис Тёрнер, создает киборга из попавшего в аварию человека по имени Пако. Его задача — убить Артура. Но в момент убийства человеческая сущность Пако берет вверх над программой, и он оставляет Мозели в живых. Скрываясь от полиции и людей Тёрнера, Пако едет в Аризону, где останавливается в маленькой гостинице, очаровательная владелица которой предоставляет ему убежище. Но бандиты и полиция уже вышли на след беглеца…



Страна: Италия
Студия: Dania Film, Medusa Distribuzione, National Cinematografica
Продолжительность: 01:29:46
Перевод: Профессиональный (двухголосый, закадровый) НТВ+ + Авторский (одноголосый, закадровый) Сергей Визгунов + Авторский (одноголосый, закадровый) Александр Марченко + Оригинал

Файл
Кодек: x264
Качество: DVDRip-AVC (источник: dvdbox / DVD5)
Видео: 768х456 (1.684), 3830 Kbps, 25.000 fps, 0.437 bit/pixel
Аудио #1: 48.0 kHz, AC3 Dolby Digital, 2/0 (L,R) ch, 192 kbps [Двухголосый, НТВ+]
Аудио #2: 48.0 kHz, AC3 Dolby Digital, 2/0 (L,R) ch, 192 kbps [Авторский, С. Визгунов]
Аудио #3: 48.0 kHz, AC3 Dolby Digital, 2/0 (L,R) ch, 192 kbps [Авторский, А. Марченко]
Аудио #4: 48.0 kHz, AC3 Dolby Digital, 2/0 (L,R) ch, 192 kbps [Оригинал, Английский]
Субтитры: Отсутствуют

Семпл

x264 [info]: frame I:1425 Avg QP:14.70 size: 70878
x264 [info]: frame P:28890 Avg QP:16.92 size: 31504
x264 [info]: frame B:104326 Avg QP:18.90 size: 15019
General
Unique ID : 204943849099059187840288264077931828297 (0x9A2EBFE51DBF0C47A83E7E73C0A1D449)
Complete name : E:Hands.Of.Steel.1986.x264.DVDRip-AVC.mkv
Format : Matroska
Format version : Version 2
File size : 2.88 GiB
Duration : 1h 29mn
Overall bit rate : 4 600 Kbps
Encoded date : UTC 2015-01-13 18:12:56
Writing application : mkvmerge v5.8.0 ('No Sleep / Pillow') built on Sep 2 2012 15:37:04
Writing library : libebml v1.2.3 + libmatroska v1.3.0

Video
ID : 1
Format : AVC
Format/Info : Advanced Video Codec
Format profile : High@L4.1
Format settings, CABAC : Yes
Format settings, ReFrames : 9 frames
Codec ID : V_MPEG4/ISO/AVC
Duration : 1h 29mn
Bit rate : 3 830 Kbps
Width : 768 pixels
Height : 456 pixels
Display aspect ratio : 1.684
Frame rate mode : Constant
Frame rate : 25.000 fps
Color space : YUV
Chroma subsampling : 4:2:0
Bit depth : 8 bits
Scan type : Progressive
Bits/(Pixel*Frame) : 0.437
Stream size : 2.35 GiB (81%)
Writing library : x264 core 144 r2525 40bb568
Encoding settings : cabac=1 / ref=9 / deblock=1:-3:-3 / analyse=0x3:0x133 / me=tesa / subme=11 / psy=1 / psy_rd=1.00:0.00 / mixed_ref=1 / me_range=32 / chroma_me=1 / trellis=2 / 8x8dct=1 / cqm=0 / deadzone=21,11 / fast_pskip=0 / chroma_qp_offset=-2 / threads=12 / lookahead_threads=1 / sliced_threads=0 / nr=0 / decimate=0 / interlaced=0 / bluray_compat=0 / constrained_intra=0 / bframes=6 / b_pyramid=2 / b_adapt=2 / b_bias=0 / direct=3 / weightb=1 / open_gop=0 / weightp=2 / keyint=250 / keyint_min=25 / scenecut=40 / intra_refresh=0 / rc=2pass / mbtree=0 / bitrate=3830 / ratetol=1.0 / qcomp=0.60 / qpmin=0 / qpmax=69 / qpstep=4 / cplxblur=20.0 / qblur=0.5 / ip_ratio=1.40 / pb_ratio=1.30 / aq=1:1.00
Default : Yes
Forced : No

Audio #1
ID : 2
Format : AC-3
Format/Info : Audio Coding 3
Mode extension : CM (complete main)
Format settings, Endianness : Big
Codec ID : A_AC3
Duration : 1h 29mn
Bit rate mode : Constant
Bit rate : 192 Kbps
Channel(s) : 2 channels
Channel positions : Front: L R
Sampling rate : 48.0 KHz
Bit depth : 16 bits
Compression mode : Lossy
Stream size : 123 MiB (4%)
Title : Двухголосый, НТВ+
Language : Russian
Default : Yes
Forced : No

Audio #2
ID : 3
Format : AC-3
Format/Info : Audio Coding 3
Mode extension : CM (complete main)
Format settings, Endianness : Big
Codec ID : A_AC3
Duration : 1h 29mn
Bit rate mode : Constant
Bit rate : 192 Kbps
Channel(s) : 2 channels
Channel positions : Front: L R
Sampling rate : 48.0 KHz
Bit depth : 16 bits
Compression mode : Lossy
Stream size : 123 MiB (4%)
Title : Авторский, С. Визгунов
Language : Russian
Default : No
Forced : No

Audio #3
ID : 4
Format : AC-3
Format/Info : Audio Coding 3
Mode extension : CM (complete main)
Format settings, Endianness : Big
Codec ID : A_AC3
Duration : 1h 29mn
Bit rate mode : Constant
Bit rate : 192 Kbps
Channel(s) : 2 channels
Channel positions : Front: L R
Sampling rate : 48.0 KHz
Bit depth : 16 bits
Compression mode : Lossy
Stream size : 123 MiB (4%)
Title : Авторский, А. Марченко
Language : English
Default : No
Forced : No

Audio #4
ID : 5
Format : AC-3
Format/Info : Audio Coding 3
Mode extension : CM (complete main)
Format settings, Endianness : Big
Codec ID : A_AC3
Duration : 1h 29mn
Bit rate mode : Constant
Bit rate : 192 Kbps
Channel(s) : 2 channels
Channel positions : Front: L R
Sampling rate : 48.0 KHz
Bit depth : 16 bits
Compression mode : Lossy
Stream size : 123 MiB (4%)
Title : Оригинал, Английский
Language : English
Default : No
Forced : No

Menu
00:00:00.000 : en:Chapter 1
00:01:54.240 : en:Chapter 2
00:09:21.600 : en:Chapter 3
00:20:55.680 : en:Chapter 4
00:30:25.920 : en:Chapter 5
00:45:03.360 : en:Chapter 6
00:53:55.200 : en:Chapter 7
01:05:48.000 : en:Chapter 8
01:16:44.640 : en:Chapter 9
01:29:43.680 : en:Chapter 10


_________________



реклама партнёра


Вернуться к началу
 Профиль Отправить личное сообщение  
 
   Похожие торренты   Автор   Торрент   Размер 
В этой теме нет новых непрочитанных сообщений. Стальные руки / Vendetta dal futuro [фантастика, боевик, 1986] DVDRip, Dvo [НТВ+]

salma3

31 | 2

1.37 ГБ

В этой теме нет новых непрочитанных сообщений. Стальные руки / Vendetta dal futuro [Фантастика, боевик, 1986] DVDRip, Dvo [НТВ+]

salma3

20 | 3

1.45 ГБ

В этой теме нет новых непрочитанных сообщений. Личная вендетта / Personal Vendetta [боевик, 1995] DVDRip, Avo

salma3

9 | 2

1.45 ГБ

В этой теме нет новых непрочитанных сообщений. Человек будущего / O Homem Do Futuro [Комедия, фантастика, фэнтези, 2011] BDRip 720p, Avo+Sub

salma3

47 | 2

4.51 ГБ

В этой теме нет новых непрочитанных сообщений. Тюремный корабль / Prison Ship [фантастика, боевик, комедия, 1986] DVDRip, Avo

salma3

33 | 9

1.48 ГБ

В этой теме нет новых непрочитанных сообщений. Опасная территория / Choke Canyon [боевик, фантастика, приключения, 1986] DVDRip, Mvo [ВГТРК]

salma3

130 | 21

1.45 ГБ

В этой теме нет новых непрочитанных сообщений. Кровная месть / Vendetta [боевик, драма, 2015] WEB-DLRip, Avo

salma3

2549 | 136

1.45 ГБ


Начать новую тему Ответить на тему  [ 1 сообщение ] 




Для Мосгорсуда, Роскомнадзора и рекламодателей:: mosgorsud-torrent[собачка]yandex.ru