Торрент файл
скачать торрент магнет ссылка Добавлен: 13 янв 2015, 13:04
Размер: 1.46 ГБ
Сидеров: 101
Личеров: 5
Статус: (salma3)
Автор

СообщениеДобавлено: 13 янв 2015, 13:04 

Не в сети
Супермодератор
Аватара пользователя
Дата регистрации:
15 фев 2012, 16:44
Возраст: 27
Спасибо: 5149 / 2090
Сообщения: 17559
Под прицелом / Silent Trigger

Год выхода: 1996
Жанр: боевик, триллер, драма
Режиссер: Рассел Малкэй

В ролях: Дольф Лундгрен, Джина Беллман, Конрад Данн, Кристофер Хейердал, Эмма Стивенс, Александрия Абер, Рейнольд Робинсон, Дэйл Хэйес, Эрин Симс, Джонатан Роберт Рондо

О фильме:
Снайпер», суперкомандос, работающий на «Агентство» - законспирированную правительственную организацию, управляемую «Координатором». «Снайпер» начинает сомневаться, всматриваться в глаза и лица своих мишеней.
А его «Контролер», второй член снайперской команды, несмотря на молодость, обладает жесткой хваткой и решительностью наемного убийцы. После того, как первая миссия их снайперской команды закончилась провалом и едва их не погубила, они вновь сталкиваются при выполнении задания для «Агентства», давшего им шанс вернуться в систему.
Их мишень: автомобиль, который должен проехать по скоростному шоссе на рассвете. Им противостоят не только сомнения, призраки и беззащитная мишень. «Координатор» отдал приказ «Контролеру» уничтожить «Снайпера», если тот вновь провалит операцию.



Страна: Канада, Великобритания
Продолжительность: 01:33:52
Перевод1: Профессиональный (двухголосый)
Перевод2: Авторский [Петр Карцев]

Файл
Качество: HDRip
Формат файла: AVI
Видео кодек: XviD
Аудио кодек: AC3
Видео: 704x304, 23.976 fps, 1794 kbps
Аудио 1: 48 kHz, AC3, 2/0 (L,R) ch, ~192 kbps avg [Двухголосый]
Аудио 2: 48 kHz, AC3, 2/0 (L,R) ch, ~224 kbps avg [Авторский, П.Карцев]

Общее
Полное имя : Silent.Trigger.1996.HDRip.avi
Формат : AVI
Формат/Информация : Audio Video Interleave
Размер файла : 1,46 Гбайт
Продолжительность : 1 ч. 33 м.
Общий поток : 2224 Кбит/сек
Программа кодирования : VirtualDubMod 1.5.10.2 (build 2542/release)
Библиотека кодирования : VirtualDubMod build 2542/release

Видео
Идентификатор : 0
Формат : MPEG-4 Visual
Профиль формата : Advanced Simple@L5
Параметр BVOP формата : 1
Параметр QPel формата : Нет
Параметр GMC формата : Без точки перехода
Параметр матрицы формата : Выборочная
Идентификатор кодека : XVID
Идентификатор кодека/Подсказка : XviD
Продолжительность : 1 ч. 33 м.
Битрейт : 1794 Кбит/сек
Ширина : 704 пикс.
Высота : 304 пикс.
Соотношение сторон : 2,35:1
Частота кадров : 23,976 кадр/сек
Цветовое пространство : YUV
Подвыборка цветности : 4:2:0
Битовая глубина : 8 бит
Тип развёртки : Прогрессивная
Метод сжатия : С потерями
Бит/(Пиксели*Кадры) : 0.350
Размер потока : 1,18 Гбайт (81%)
Библиотека кодирования : XviD 73

Аудио #1
Идентификатор : 1
Формат : AC-3
Формат/Информация : Audio Coding 3
Расширение режима : CM (complete main)
Идентификатор кодека : 2000
Продолжительность : 1 ч. 33 м.
Вид битрейта : Постоянный
Битрейт : 192 Кбит/сек
Канал(ы) : 2 канала(ов)
Расположение каналов : Front: L R
Частота : 48,0 КГц
Битовая глубина : 16 бит
Метод сжатия : С потерями
Размер потока : 129 Мбайт (9%)
Выравнивание : Разделение по промежуткам
Продолжительность промежутка : 42 мс. (1,00 видеокадр)
Время предзагрузки промежутка : 500 ms

Аудио #2
Идентификатор : 2
Формат : AC-3
Формат/Информация : Audio Coding 3
Расширение режима : CM (complete main)
Идентификатор кодека : 2000
Продолжительность : 1 ч. 33 м.
Вид битрейта : Постоянный
Битрейт : 224 Кбит/сек
Канал(ы) : 2 канала(ов)
Расположение каналов : Front: L R
Частота : 48,0 КГц
Битовая глубина : 16 бит
Метод сжатия : С потерями
Размер потока : 150 Мбайт (10%)
Выравнивание : Разделение по промежуткам
Продолжительность промежутка : 42 мс. (1,00 видеокадр)
Время предзагрузки промежутка : 500 ms


Релиз от: Leon-masl


_________________



реклама партнёра


Вернуться к началу
 Профиль Отправить личное сообщение  
 
   Похожие торренты   Автор   Торрент   Размер 
В этой теме нет новых непрочитанных сообщений. Под прицелом / Silent Trigger [Боевик, триллер, драма, 1996] HDRip-AVC, Dvo+Avo+Sub

salma3

75 | 8

2.18 ГБ

В этой теме нет новых непрочитанных сообщений. Под прицелом / Silent Trigger [Боевик, триллер, драма, 1996] HDRip, Dvo

salma3

49 | 4

1.46 ГБ

В этой теме нет новых непрочитанных сообщений. Под прицелом / Silent Trigger [боевик, триллер, драма, 1996] HDRip, Avo

salma3

70 | 3

743.09 МБ

В этой теме нет новых непрочитанных сообщений. Под прицелом / Silent Trigger [боевик, триллер, драма, 1996] BDRip 720p, 2Dvo+Avo+Sub

salma3

50 | 4

7.67 ГБ

В этой теме нет новых непрочитанных сообщений. Под прицелом / Silent Trigger [Боевик, триллер, драма, 1996] BDRip 1080p, 2Dvo+2Avo+Sub

salma3

38 | 8

7.35 ГБ

В этой теме нет новых непрочитанных сообщений. Под прицелом / Hunted [s01] [триллер, боевик, драма, 2012] WEB-DLRip, Mvo [NewStudio]

salma3

13 | 3

5.47 ГБ

В этой теме нет новых непрочитанных сообщений. Ромео истекает кровью / Полицейский под прицелом / Romeo Is Bleeding [Боевик, триллер, драма, криминал, 1993] BDRip 1080p, Mvo

salma3

70 | 27

15.35 ГБ


Начать новую тему Ответить на тему  [ 1 сообщение ] 




Для Мосгорсуда, Роскомнадзора и рекламодателей:: mosgorsud-torrent[собачка]yandex.ru