Торрент файл
скачать торрент магнет ссылка Добавлен: 31 дек 2014, 22:04
Размер: 2.28 ГБ
Сидеров: 228
Личеров: 6
Автор

СообщениеДобавлено: 31 дек 2014, 22:04 

Не в сети
Зам. Админа
Аватара пользователя
Дата регистрации:
02 дек 2010, 12:39
Спасибо: 12460 / 214
Сообщения: 27968
Год выхода: 2013
Жанр: Драма, приключения, семейный
Режиссер: Жан-Пьер Жене
В ролях: Кайл Кэтлетт, Хелена Бонем Картер, Роберт Мэйллет, Джуди Дэвис, Каллум Кит Ренни, Эмбер Гольдфарб, Ниам Уилсон, Джулиан Ричингс, Доминик Пинон, Джейкоб Дейвис

О фильме:
Экранизация одноименной книжки про десятилетнего вундеркинда по имени Т.С. Спивет, который без ведома родителей отправляется из Монтаны в Вашингтон получать награду за изобретение вечного двигателя.


Страна: Франция, Австралия, Канада
Студия: Cyan Films, Epithète Films, Filmarto, France 2 Cinéma, France Télévisions, Gaumont, Orange Cinéma Séries, Tapioca Films
Продолжительность: 01:45:03
Перевод: Дублированный (НТВ+)

Кодек: MPEG-4 AVC
Качество: BDRip-AVC
Видео: 2210 Кбит/с, 1024x424
Звук: Русский, английский (AC3, 6 ch, 448 Кбит/с)
Субтитры: Русские (форс., полные)

Рип от StarbirS
Релиз группы NovaLan

Аудио#1: Russian: AC3, 48 kHz, AC3, 3/2 (L,C,R,l,r) + LFE ch, ~448.00 kbps avg - Дублированный (НТВ+)
Аудио#2: English: AC3, 48 kHz, AC3, 3/2 (L,C,R,l,r) + LFE ch, ~448.00 kbps avg - Оригинал

Субтитры: Русские (форс., полные)

x264 [info]: frame I:1193 Avg QP:17.11 size: 97070
x264 [info]: frame P:33077 Avg QP:20.25 size: 25662
x264 [info]: frame B:116858 Avg QP:22.12 size: 6631

За запись с канала "НТВ+" ("Кинорейс") спасибо xfiles
Формат : Matroska
Версия формата : Version 4 / Version 2
Размер файла : 2,28 Гбайт
Продолжительность : 1 ч. 45 м.
Общий поток : 3106 Кбит/сек
Название фильма : Spivet.2014.x264.D.BDRip.(AVC).NovaLan
Дата кодирования : UTC 2014-12-31 16:09:33
Программа кодирования : mkvmerge v7.3.0 ('Nouages') 64bit built on Oct 22 2014 18:53:34
Библиотека кодирования : libebml v1.3.0 + libmatroska v1.4.1
DURATION : 01:45:03.360000000
NUMBER_OF_FRAMES : 196980
NUMBER_OF_BYTES : 352988160
_STATISTICS_WRITING_APP : mkvmerge v7.3.0 ('Nouages') 64bit built on Oct 22 2014 18:53:34
_STATISTICS_WRITING_DATE_UTC : 2014-12-31 16:09:33
_STATISTICS_TAGS : BPS DURATION NUMBER_OF_FRAMES NUMBER_OF_BYTES

Видео
Идентификатор : 1
Формат : AVC
Формат/Информация : Advanced Video Codec
Профиль формата : High@L4.1
Параметр CABAC формата : Да
Параметр ReFrames формата : 9 кадров
Идентификатор кодека : V_MPEG4/ISO/AVC
Продолжительность : 1 ч. 45 м.
Битрейт : 2210 Кбит/сек
Ширина : 1024 пикселя
Высота : 424 пикселя
Соотношение сторон : 2,40:1
Режим частоты кадров : Постоянный
Частота кадров : 23,976 кадра/сек
Цветовое пространство : YUV
Субдискретизация насыщенности : 4:2:0
Битовая глубина : 8 бит
Тип развёртки : Прогрессивная
Бит/(Пиксели*Кадры) : 0.212
Размер потока : 1,58 Гбайт (69%)
Заголовок : Spivet.2014.x264.D.BDRip.(AVC).by.StarbirS
Библиотека кодирования : x264 core 144 r2525 40bb568
Настройки программы : cabac=1 / ref=9 / deblock=1:-3:-3 / analyse=0x3:0x113 / me=umh / subme=11 / psy=1 / psy_rd=1.00:0.20 / mixed_ref=1 / me_range=48 / chroma_me=1 / trellis=2 / 8x8dct=1 / cqm=0 / deadzone=21,11 / fast_pskip=0 / chroma_qp_offset=-3 / threads=12 / lookahead_threads=6 / sliced_threads=0 / nr=0 / decimate=0 / interlaced=0 / bluray_compat=0 / constrained_intra=0 / bframes=8 / b_pyramid=2 / b_adapt=2 / b_bias=0 / direct=3 / weightb=1 / open_gop=0 / weightp=2 / keyint=240 / keyint_min=23 / scenecut=40 / intra_refresh=0 / rc=2pass / mbtree=0 / bitrate=2210 / ratetol=1.0 / qcomp=0.65 / qpmin=0 / qpmax=69 / qpstep=4 / cplxblur=20.0 / qblur=0.5 / ip_ratio=1.40 / pb_ratio=1.30 / aq=1:0.90
Язык : English
Default : Да
Forced : Нет
DURATION : 01:45:03.307000000
NUMBER_OF_FRAMES : 151128
NUMBER_OF_BYTES : 1739461214
_STATISTICS_WRITING_APP : mkvmerge v7.3.0 ('Nouages') 64bit built on Oct 22 2014 18:53:34
_STATISTICS_WRITING_DATE_UTC : 2014-12-31 16:09:33
_STATISTICS_TAGS : BPS DURATION NUMBER_OF_FRAMES NUMBER_OF_BYTES

Аудио #1
Идентификатор : 2
Формат : AC-3
Формат/Информация : Audio Coding 3
Расширение режима : CM (complete main)
Параметр Endianness формата : Big
Идентификатор кодека : A_AC3
Продолжительность : 1 ч. 45 м.
Вид битрейта : Постоянный
Битрейт : 448 Кбит/сек
Каналы : 6 каналов
Расположение каналов : Front: L C R, Side: L R, LFE
Частота : 48,0 КГц
Битовая глубина : 16 бит
Метод сжатия : С потерями
Размер потока : 337 Мбайт (14%)
Заголовок : Дублированный (НТВ+)
Язык : Russian
Default : Да
Forced : Нет

Аудио #2
Идентификатор : 3
Формат : AC-3
Формат/Информация : Audio Coding 3
Расширение режима : CM (complete main)
Параметр Endianness формата : Big
Идентификатор кодека : A_AC3
Продолжительность : 1 ч. 45 м.
Вид битрейта : Постоянный
Битрейт : 448 Кбит/сек
Каналы : 6 каналов
Расположение каналов : Front: L C R, Side: L R, LFE
Частота : 48,0 КГц
Битовая глубина : 16 бит
Метод сжатия : С потерями
Размер потока : 337 Мбайт (14%)
Язык : English
Default : Нет
Forced : Нет

Текст #1
Идентификатор : 4
Формат : UTF-8
Идентификатор кодека : S_TEXT/UTF8
Идентификатор кодека/Информация : UTF-8 Plain Text
Заголовок : forced
Язык : Russian
Default : Да
Forced : Нет

Текст #2
Идентификатор : 5
Формат : UTF-8
Идентификатор кодека : S_TEXT/UTF8
Идентификатор кодека/Информация : UTF-8 Plain Text
Заголовок : full
Default : Нет
Forced : Нет

Меню
00:00:00.000 : en:00:00:00.000
00:05:48.932 : en:00:05:48.932
00:14:55.728 : en:00:14:55.728
00:20:51.500 : en:00:20:51.500
00:29:59.673 : en:00:29:59.673
00:38:31.726 : en:00:38:31.726
00:46:13.813 : en:00:46:13.813
00:55:29.034 : en:00:55:29.034
01:06:40.997 : en:01:06:40.997
01:13:58.100 : en:01:13:58.100
01:26:25.472 : en:01:26:25.472
01:36:23.486 : en:01:36:23.486




реклама партнёра


Вернуться к началу
 Профиль  
 
   Похожие торренты   Автор   Торрент   Размер 
В этой теме нет новых непрочитанных сообщений. Невероятное путешествие мистера Спивета / The Young and Prodigious T.S. Spivet [Драма, приключения, семейный, 2013] BDRip 1080p, Dub [Чистый Звук]

Dracon

47 | 2

7.91 ГБ

В этой теме нет новых непрочитанных сообщений. Невероятное путешествие мистера Спивета / The Young and Prodigious T.S. Spivet (Жан-Пьер Жёне) [Драма, Приключения, Семейный, 2013] BDRip 1080p, Dub+Sub [НТВ+ | 3D-Video]

Dracon

223 | 14

9.32 ГБ

В этой теме нет новых непрочитанных сообщений. Невероятное путешествие мистера Спивета / The Young and Prodigious T.S. Spivet [Драма, приключения, семейный, 2013] HDRip, Dub [Чистый Звук]

Dracon

2659 | 44

1.46 ГБ

В этой теме нет новых непрочитанных сообщений. Приключения мистера Пибоди и Шермана / Mr. Peabody & Sherman [Мультфильм, Фантастика, Комедия, Приключения, Семейный, 2014] BDRip 720p, Dub+Sub [Blu-ray CEE]

Dracon

5 | 2

6.43 ГБ

В этой теме нет новых непрочитанных сообщений. Приключения мистера Пибоди и Шермана / Mr. Peabody & Sherman [Мультфильм, Фантастика, Комедия, Приключения, Семейный, 2014] BDRip 1080p, Dub+Sub [Blu-ray CEE]

Dracon

104 | 8

8.54 ГБ

В этой теме нет новых непрочитанных сообщений. Приключения мистера Пибоди и Шермана / Mr. Peabody & Sherman [Мультфильм, фантастика, комедия, приключения, семейный, 2014] BDRip 720p, Dub [iTunes]

Dracon

79 | 4

4.21 ГБ

В этой теме нет новых непрочитанных сообщений. Приключения мистера Пибоди и Шермана / Mr. Peabody & Sherman [Мультфильм, Фантастика, Комедия, Приключения, Семейный, 2014] BDRip 1080p, Dub+Sub [лицензия | 3D-Video]

Dracon

140 | 9

9.22 ГБ


Начать новую тему Ответить на тему  [ 1 сообщение ] 




Для Мосгорсуда, Роскомнадзора и рекламодателей:: mosgorsud-torrent[собачка]yandex.ru