Торрент файл
скачать торрент магнет ссылка Добавлен: 31 дек 2014, 21:07
Размер: 1.36 ГБ
Сидеров: 40
Личеров: 5
Статус: (salma3)
Автор

СообщениеДобавлено: 31 дек 2014, 21:07 

Не в сети
Супермодератор
Аватара пользователя
Дата регистрации:
15 фев 2012, 16:44
Возраст: 27
Спасибо: 5143 / 2090
Сообщения: 17499
Огненный шторм / Firestorm

Год выхода: 1998
Жанр: боевик, триллер
Режиссер: Дин Семлер / Dean Semler

В ролях: Хоуи Лонг, Скотт Гленн, Уильям Форсайт, Сьюзи Эймис, Кристианна Херт, Гарвин Санфорд, Себастьян Спенс, Майкл Грейес, Барри Пеппер, Владимир Кулих

О фильме:
Рэндел Шей — жестокий убийца, отбывающий срок за ограбление поезда. Ему удается осуществить дерзкий побег. Неподалеку от тюрьмы подстроен лесной пожар, который позволяет скрыться Шэю и группе уголовников. Джесси Грэйвз — командир элитного отряда пожарников, которых называют «прыгунами в дым».
Во время больших лесных пожаров команду Грейвза десантируют с самолета прямо в пламя, в места недоступные для наземных подразделений. Когда поступает сигнал о стихийном бедствии, Джесси еще не подозревает, что ему в одиночку предстоит смертельный поединок не только с разбушевавшейся стихией, но и с бандой опасных преступников…



Страна: США
Продолжительность: 01:21:52
Перевод: Профессиональный (многоголосый закадровый)

Файл
Качество: HDTVRip
Формат файла: AVI
Видео кодек: XviD
Аудио кодек: AC3
Видео: 704x400, 25.000 fps, XviD ~ 2183 kbps
Звук: AC3, 2ch, 48,0 kHz, 192 kbps

Общее
Полное имя : Ognenniy.Shtorm.1998.HDTVRip.avi
Формат : AVI
Формат/Информация : Audio Video Interleave
Размер файла : 1,36 Гбайт
Продолжительность : 1 ч. 21 м.
Общий поток : 2385 Кбит/сек
Программа кодирования : VirtualDubMod 1.5.10.3 | http://www.virtualdub-fr.org || (build 2550/release)
Библиотека кодирования : VirtualDubMod build 2550/release

Видео
Идентификатор : 0
Формат : MPEG-4 Visual
Профиль формата : Advanced Simple@L5
Параметр BVOP формата : 1
Параметр QPel формата : Нет
Параметр GMC формата : Без точки перехода
Параметр матрицы формата : Выборочная
Идентификатор кодека : XVID
Идентификатор кодека/Подсказка : XviD
Продолжительность : 1 ч. 21 м.
Битрейт : 2183 Кбит/сек
Ширина : 704 пикс.
Высота : 400 пикс.
Соотношение сторон : 16:9
Частота кадров : 25,000 кадр/сек
Цветовое пространство : YUV
Подвыборка цветности : 4:2:0
Битовая глубина : 8 бит
Тип развёртки : Прогрессивная
Метод сжатия : С потерями
Бит/(Пиксели*Кадры) : 0.310
Размер потока : 1,25 Гбайт (92%)
Библиотека кодирования : XviD 73

Аудио
Идентификатор : 1
Формат : AC-3
Формат/Информация : Audio Coding 3
Расширение режима : CM (complete main)
Идентификатор кодека : 2000
Продолжительность : 1 ч. 21 м.
Вид битрейта : Постоянный
Битрейт : 192 Кбит/сек
Канал(ы) : 2 канала(ов)
Расположение каналов : Front: L R
Частота : 48,0 КГц
Битовая глубина : 16 бит
Метод сжатия : С потерями
Размер потока : 112 Мбайт (8%)
Выравнивание : Разделение по промежуткам
Продолжительность промежутка : 40 мс. (1,00 видеокадр)
Время предзагрузки промежутка : 500 ms

Релиз от: Leon-masl


_________________



реклама партнёра


Вернуться к началу
 Профиль Отправить личное сообщение  
 
   Похожие торренты   Автор   Торрент   Размер 
В этой теме нет новых непрочитанных сообщений. Огненная буря / Firestorm / Fung bou [боевик, криминал, 2013] HDTVRip, Dvo

salma3

86 | 3

1.19 ГБ

В этой теме нет новых непрочитанных сообщений. Огненная буря / Firestorm / Fung bou [боевик, криминал, 2013] HDRip, Dvo

salma3

256 | 8

1.46 ГБ

В этой теме нет новых непрочитанных сообщений. Огненная буря / Firestorm / Fung bou [боевик, криминал, 2013] BDRip 720p, Dvo

salma3

62 | 6

4.51 ГБ

В этой теме нет новых непрочитанных сообщений. И грянул шторм / The Finest Hours [Боевик, триллер, драма, история, 2016] BDRip 1080p, Dub [Чистый звук]

salma3

179 | 29

14.22 ГБ

В этой теме нет новых непрочитанных сообщений. И грянул шторм / The Finest Hours (Крэйг Гиллеспи / Craig Gillespie) [2016г., боевик, триллер, драма, история, WEB-DLRip] dub

Alfredovich

8025 | 630

1.37 ГБ

В этой теме нет новых непрочитанных сообщений. Пурпурный шторм / Zi yu feng bao [Боевик, 1999] DVDRip, Avo

salma3

6 | 2

1.46 ГБ

В этой теме нет новых непрочитанных сообщений. Шторм Z / Z Storm [боевик, криминал, 2014] HDRip, dvo

Dracon

189 | 8

1.47 ГБ


Начать новую тему Ответить на тему  [ 1 сообщение ] 




Для Мосгорсуда, Роскомнадзора и рекламодателей:: mosgorsud-torrent[собачка]yandex.ru