Торрент файл
скачать торрент магнет ссылка Добавлен: 29 дек 2014, 12:02
Размер: 1.51 ГБ
Сидеров: 122
Личеров: 4
Статус: (salma3)
Автор

СообщениеДобавлено: 29 дек 2014, 12:02 

Не в сети
Зам. Админа
Аватара пользователя
Дата регистрации:
02 дек 2010, 12:39
Спасибо: 12623 / 214
Сообщения: 28012
Год выхода: 2014
Жанр: Драма
Режиссер: Филипп Фалардо
В ролях: Риз Уизерспун, Арнольд Окенг, Хер Дуани, Эммануэль Джал, Кори Столл, Куот Виль, Феми Огунс, Сара Бэйкер, Линдси Гаррет

О фильме
:
Военные беженцы из Судана получили разрешение на иммиграцию в Канзас-Сити, спустя 13 лет после того, как попали в лагерь беженцев, спасаясь от пуль солдат. Здесь им предстоит начать жизнь заново, найти работу, преодолевать трудности. "Потерянные мальчики Судана" - так назвали этих детей гражданской войны, разразившейся в Судане в 1983 году, когда сжигались целые деревни, а бомбы летели на мирные селения, уничтожая детей, стариков, женщин.

Страна: Кения, Индия, США
Студия: Alcon Entertainment , Black Label Media , Blue Sky Films, Good Lie Productions
Продолжительность: 01:50:00
Перевод: Отсутствует

Кодек: XviD
Качество: BDRip
Видео: 1503 Кбит/с, 720x400
Звук: AC3, 2 ch, 448 Кбит/с
Субтитры: Русские

File: D:Видео 2The.Good.Lie.2014.BRRip.avi
General
Complete name : D:Видео 2The.Good.Lie.2014.BRRip.avi
Format : AVI
Format/Info : Audio Video Interleave
File size : 1.51 GiB
Duration : 1h 50mn
Overall bit rate : 1 959 Kbps
Writing application : VirtualDubMod 1.5.10.2 (build 2542/release)
Writing library : VirtualDubMod build 2542/release
Video
ID : 0
Format : MPEG-4 Visual
Format profile : Advanced Simple@L5
Format settings, BVOP : 1
Format settings, QPel : No
Format settings, GMC : No warppoints
Format settings, Matrix : Default (H.263)
Muxing mode : Packed bitstream
Codec ID : XVID
Codec ID/Hint : XviD
Duration : 1h 50mn
Bit rate : 1 504 Kbps
Width : 720 pixels
Height : 400 pixels
Display aspect ratio : 16:9
Frame rate : 23.976 fps
Color space : YUV
Chroma subsampling : 4:2:0
Bit depth : 8 bits
Scan type : Progressive
Compression mode : Lossy
Bits/(Pixel*Frame) : 0.218
Stream size : 1.16 GiB (77%)
Writing library : XviD 64
Audio
ID : 1
Format : AC-3
Format/Info : Audio Coding 3
Mode extension : CM (complete main)
Format settings, Endianness : Big
Codec ID : 2000
Duration : 1h 49mn
Bit rate mode : Constant
Bit rate : 448 Kbps
Channel(s) : 2 channels
Channel positions : Front: L R
Sampling rate : 48.0 KHz
Bit depth : 16 bits
Compression mode : Lossy
Stream size : 352 MiB (23%)
Alignment : Split accross interleaves
Interleave, duration : 64 ms (1.53 video frames)
Interleave, preload duration : 500 ms




реклама партнёра


Вернуться к началу
 Профиль  
 
   Похожие торренты   Автор   Торрент   Размер 
В этой теме нет новых непрочитанных сообщений. Ложь во спасение / The Good Lie (Филипп Фалардо) [Драма, 2014] BDRip 720p, Mvo [iTunes]

Dracon

12 | 2

5.09 ГБ

В этой теме нет новых непрочитанных сообщений. Ложь во спасение / The Good Lie (Филипп Фалардо) [Драма, 2014] BDRip 1080p, Mvo [iTunes]

Dracon

103 | 11

7.57 ГБ

В этой теме нет новых непрочитанных сообщений. Ложь во спасение / The Good Lie (Филипп Фалардо) [Драма, 2014] HDRip, Mvo [iTunes Russia]

Dracon

97 | 3

1.37 ГБ

В этой теме нет новых непрочитанных сообщений. Ложь во спасение [01-04 из 04] [Детектив, Мелодрама, 2015] WEB-DLRip 720p

salma3

493 | 111

3.44 ГБ

В этой теме нет новых непрочитанных сообщений. Спасение / The Salvation [драма, вестерн, 2014] BDRip 1080p, avo+sub

Dracon

1 | 2

8.48 ГБ

В этой теме нет новых непрочитанных сообщений. Спасение / The Salvation [драма, вестерн, 2014] BDRip 1080p, Avo+Sub

Dracon

1 | 2

9.2 ГБ

В этой теме нет новых непрочитанных сообщений. Спасение / The Salvation [драма, вестерн, 2014] BDRip 720p, Avo+Sub

Dracon

5 | 2

5.43 ГБ


Начать новую тему Ответить на тему  [ 1 сообщение ] 




Для Мосгорсуда, Роскомнадзора и рекламодателей:: mosgorsud-torrent[собачка]yandex.ru