Торрент файл
скачать торрент магнет ссылка Добавлен: 24 дек 2014, 12:58
Размер: 1.86 ГБ
Сидеров: 183
Личеров: 9
Статус: (salma3)
Автор

СообщениеДобавлено: 24 дек 2014, 12:58 

В сети
Супермодератор
Аватара пользователя
Дата регистрации:
15 фев 2012, 16:44
Возраст: 27
Спасибо: 5143 / 2090
Сообщения: 17491
Год выхода: 2001
Жанр: Мелодрама, триллер, драма
Режиссер: Луис Мандоки

В ролях: Дженнифер Лопес, Джеймс Кэвизел, Джереми Систо, Терренс Ховард, Соня Брага, Виктор Арго, Монит Мазур, Ширли Найт, Дэниэл Магдер, Гилейн Сент-Ондж

О фильме:
Шерон работает в полиции и настолько посвящена работе, что до сих пор живет одна. У нее натянутые отношения с родителями и братом, и она нуждается в любви и понимании, и находит их в лице незнакомца по имени Кэтч, спасающего ей жизнь во время вышедшей из под контроля полицейской операции. Кэтч помогает людям, и вскоре Шерон понимает, что все это идет от какой-то трагедии, произошедшей в его прошлом…



Страна: США
Студия: AE Two Film Productions, Morgan Creek Productions
Продолжительность: 01:38:26
Перевод: Профессиональный многоголосый, профессиональный двухголосый

Файл
Кодек: H 264
Качество: DVDRip (AVC)
Видео: MPEG-4 AVC, 1996 Кбит/с, 720х576@1018x576, 25 кадр/с
Звук:
• №1: Русский (AC3, 2 ch, 192 Кбит/с) | Профессиональный (многоголосый закадровый) [ГТРК Россия (Спасибо Diablo)]
• №2: Русский (MP3, 2 ch, 128 Кбит/с) | Профессиональный (многоголосый закадровый)
• №3: Русский (AC3, 6 ch, 384 Кбит/с) | Профессиональный (двухголосый, закадровый) [R5, CP Digital]

Семпл





Общее
Уникальный идентификатор : 216173282042357768295116037030279611341 (0xA2A175AF4DF3EA8E9B77BA5E4BD783CD)
Полное имя : D:Glaza.angela.2001.x264.DVDRip.(AVC).mkv
Формат : Matroska
Версия формата : Version 4 / Version 2
Размер файла : 1,86 Гбайт
Продолжительность : 1 ч. 38 м.
Общий поток : 2703 Кбит/сек
Название фильма : Angel Eyes (2001) [m]
Дата кодирования : UTC 2014-12-22 23:09:04
Программа кодирования : mkvmerge v7.3.0 ('Nouages') 32bit built on Oct 22 2014 18:44:01
Библиотека кодирования : libebml v1.3.0 + libmatroska v1.4.1
DURATION : 01:38:26.912000000
NUMBER_OF_FRAMES : 184591
NUMBER_OF_BYTES : 283531776
_STATISTICS_WRITING_APP : mkvmerge v7.3.0 ('Nouages') 32bit built on Oct 22 2014 18:44:01
_STATISTICS_WRITING_DATE_UTC : 2014-12-22 23:09:04
_STATISTICS_TAGS : BPS DURATION NUMBER_OF_FRAMES NUMBER_OF_BYTES

Видео
Идентификатор : 1
Формат : AVC
Формат/Информация : Advanced Video Codec
Профиль формата : High@L3.1
Параметр CABAC формата : Да
Параметр ReFrames формата : 3 кадра
Идентификатор кодека : V_MPEG4/ISO/AVC
Продолжительность : 1 ч. 38 м.
Битрейт : 1996 Кбит/сек
Ширина : 720 пикселей
Высота : 576 пикселей
Соотношение сторон : 16:9
Соотношение сторон в оригинале : 5:4
Частота кадров : 25,000 кадров/сек
Стандарт вещания : PAL
Цветовое пространство : YUV
Субдискретизация насыщенности : 4:2:0
Битовая глубина : 8 бит
Тип развёртки : Прогрессивная
Бит/(Пиксели*Кадры) : 0.193
Размер потока : 1,34 Гбайт (72%)
Заголовок : Angel Eyes (2001)
Библиотека кодирования : x264 core 65 r999kMod cc51047
Настройки программы : cabac=1 / ref=3 / deblock=1:0:0 / analyse=0x3:0x133 / me=umh / subme=8 / psy_rd=1.0:0.0 / mixed_ref=1 / me_range=16 / chroma_me=1 / trellis=2 / 8x8dct=1 / cqm=0 / deadzone=21,11 / chroma_qp_offset=-2 / threads=4 / thread_queue=4 / nr=0 / decimate=1 / mbaff=0 / bframes=3 / b_pyramid=1 / b_adapt=1 / b_bias=0 / direct=3 / wpredb=1 / keyint=250 / keyint_min=25 / scenecut=40(pre) / rc=2pass / bitrate=1996 / ratetol=1.0 / qcomp=0.60 / qpmin=10 / qpmax=51 / qpstep=4 / cplxblur=20.0 / qblur=0.5 / ip_ratio=1.40 / pb_ratio=1.30 / aq=1:1.00
Язык : English
Default : Нет
Forced : Да

Аудио #1
Идентификатор : 2
Формат : AC-3
Формат/Информация : Audio Coding 3
Расширение режима : CM (complete main)
Параметр Endianness формата : Big
Идентификатор кодека : A_AC3
Продолжительность : 1 ч. 38 м.
Вид битрейта : Постоянный
Битрейт : 192 Кбит/сек
Каналы : 2 канала
Расположение каналов : Front: L R
Частота : 48,0 КГц
Битовая глубина : 16 бит
Метод сжатия : С потерями
Размер потока : 135 Мбайт (7%)
Заголовок : MVO (AC3 2ch 192) GTRK
Язык : Russian
Default : Нет
Forced : Нет

Аудио #2
Идентификатор : 3
Формат : MPEG Audio
Версия формата : Version 1
Профиль формата : Layer 3
Идентификатор кодека : A_MPEG/L3
Идентификатор кодека/Подсказка : MP3
Продолжительность : 1 ч. 38 м.
Вид битрейта : Постоянный
Битрейт : 128 Кбит/сек
Каналы : 2 канала
Частота : 48,0 КГц
Метод сжатия : С потерями
Размер потока : 90,1 Мбайт (5%)
Заголовок : MVO (MP3 2ch 128)
Язык : Russian
Default : Нет
Forced : Нет

Аудио #3
Идентификатор : 4
Формат : AC-3
Формат/Информация : Audio Coding 3
Расширение режима : CM (complete main)
Параметр Endianness формата : Big
Идентификатор кодека : A_AC3
Продолжительность : 1 ч. 38 м.
Вид битрейта : Постоянный
Битрейт : 384 Кбит/сек
Каналы : 6 каналов
Расположение каналов : Front: L C R, Side: L R, LFE
Частота : 48,0 КГц
Битовая глубина : 16 бит
Метод сжатия : С потерями
Размер потока : 270 Мбайт (14%)
Заголовок : DVO (AC3 6ch 384) R5 CP Digital
Default : Нет
Forced : Нет


_________________



реклама партнёра


Вернуться к началу
 Профиль Отправить личное сообщение  
 
   Похожие торренты   Автор   Торрент   Размер 
В этой теме нет новых непрочитанных сообщений. Глаза ангела / Angel Eyes [Триллер, Мелодрама, 2001] DVDRip, Mvo

salma3

0 | 2

1.37 ГБ

В этой теме нет новых непрочитанных сообщений. Ночные глаза 4 / Night Eyes Four: Fatal Passion [триллер, драма, 1996] DVDRip, Avo

salma3

2 | 3

1.22 ГБ

В этой теме нет новых непрочитанных сообщений. Ночное наблюдение / Ночная стража / Ночные глаза / Night Eyes [Триллер, драма, 1990] DVDRip, Dvo [НТВ][

salma3

86 | 13

747.38 МБ

В этой теме нет новых непрочитанных сообщений. Глаза Токио / Tokyo Eyes [Триллер, комедия, 1998] DVDRip, Dvo

salma3

9 | 4

1.46 ГБ

В этой теме нет новых непрочитанных сообщений. Глаза звезды / Звездные глаза / Starry Eyes [ужасы, 2014] WEB-DL 720p, dvo

Dracon

80 | 4

2.9 ГБ

В этой теме нет новых непрочитанных сообщений. Глаза звезды / Звездные глаза / Starry Eyes [ужасы, 2014] WEB-DLRip, dvo

Dracon

249 | 12

1.4 ГБ

В этой теме нет новых непрочитанных сообщений. Глаза моей матери / The Eyes of My Mother [ужасы, триллер, драма, 2016] WEB-DLRip, Avo

salma3

261 | 44

1.35 ГБ


Начать новую тему Ответить на тему  [ 1 сообщение ] 




Для Мосгорсуда, Роскомнадзора и рекламодателей:: mosgorsud-torrent[собачка]yandex.ru