Торрент файл
скачать торрент магнет ссылка Добавлен: 22 дек 2014, 10:49
Размер: 1.46 ГБ
Сидеров: 2256
Личеров: 84
Статус: (salma3)
Автор

СообщениеДобавлено: 22 дек 2014, 10:49 

В сети
Супермодератор
Аватара пользователя
Дата регистрации:
15 фев 2012, 16:44
Возраст: 27
Спасибо: 5148 / 2090
Сообщения: 17558
Моя Госпожа / My Mistress

Год выхода: 2014
Жанр: Драма, мелодрама
Режиссер: Стивен Лэнс

В ролях: Эммануэль Беар, Харрисон Гилбертсон, Рэйчел Блейк, Сократис Отто, Хью Паркер, Леа Пурселл, Малкольм Кеннард, Робин Мур, Ной Фонтейн, Монетт Ли

О фильме:
Красивые и невинные отношения, завязавшиеся между романтичным подростком и француженкой, склонной к садомазохизму, вскоре становятся очень опасными…



Страна: Австралия / Mini Studios
Продолжительность: 01:39:58
Перевод: Профессиональный [многоголосый]

Файл
Качество: SATRip
Формат файла: AVI
Видео кодек: XviD
Аудио кодек: AC3
Видео: 1698 Кбит/с, 720x304, 25.000 кадр/с
Звук: Русский (АС3, 6 ch, 384 Кбит/с)

Семпл

Общее
Полное имя : Moja.Gospozha.2014.SATRip.MediaClub.avi
Формат : AVI
Формат/Информация : Audio Video Interleave
Размер файла : 1,46 Гбайт
Продолжительность : 1 ч. 39 м.
Общий поток : 2091 Кбит/сек
Название фильма : MediaClub
Программа кодирования : VirtualDubMod 1.5.10.2 (build 2540/release)
Библиотека кодирования : VirtualDubMod build 2540/release

Видео
Идентификатор : 0
Формат : MPEG-4 Visual
Профиль формата : Advanced Simple@L5
Параметр BVOP формата : 2
Параметр QPel формата : Нет
Параметр GMC формата : Без точки перехода
Параметр матрицы формата : Default (MPEG)
Идентификатор кодека : XVID
Идентификатор кодека/Подсказка : XviD
Продолжительность : 1 ч. 39 м.
Битрейт : 1698 Кбит/сек
Ширина : 720 пикселей
Высота : 304 пикселя
Соотношение сторон : 2,35:1
Частота кадров : 25,000 кадров/сек
Цветовое пространство : YUV
Субдискретизация насыщенности : 4:2:0
Битовая глубина : 8 бит
Тип развёртки : Прогрессивная
Метод сжатия : С потерями
Бит/(Пиксели*Кадры) : 0.310
Размер потока : 1,19 Гбайт (81%)
Библиотека кодирования : XviD 65

Аудио
Идентификатор : 1
Формат : AC-3
Формат/Информация : Audio Coding 3
Расширение режима : CM (complete main)
Параметр Endianness формата : Big
Идентификатор кодека : 2000
Продолжительность : 1 ч. 39 м.
Вид битрейта : Постоянный
Битрейт : 384 Кбит/сек
Каналы : 6 каналов
Расположение каналов : Front: L C R, Side: L R, LFE
Частота : 48,0 КГц
Битовая глубина : 16 бит
Метод сжатия : С потерями
Задержка видео : 12 мс.
Размер потока : 275 Мбайт (18%)
Выравнивание : Разделение по промежуткам
Продолжительность промежутка : 40 мс. (1,00 видеокадр)
Время предзагрузки промежутка : 500 мс.


Релиз от:


_________________



реклама партнёра


Вернуться к началу
 Профиль Отправить личное сообщение  
 
   Похожие торренты   Автор   Торрент   Размер 
В этой теме нет новых непрочитанных сообщений. Моя Госпожа / My Mistress (Стивен Лэнс) [Драма, мелодрама, 2014] WEB-DLRip, Mvo

Dracon

218 | 7

1.45 ГБ

В этой теме нет новых непрочитанных сообщений. Моя Госпожа / My Mistress (Стивен Лэнс) [Драма, мелодрама, 2014] WEB-DL 720p, Mvo

Dracon

6 | 3

3.5 ГБ

В этой теме нет новых непрочитанных сообщений. Госпожа Америка / Mistress America [Комедия, 2015] HDRip, Mvo [iTunes]

Nickolas3435

302 | 12

1.37 ГБ

В этой теме нет новых непрочитанных сообщений. Госпожа Америка / Mistress America [Комедия, 2015] BDRip 1080p, Mvo [iTunes]

Dracon

37 | 2

6.78 ГБ

В этой теме нет новых непрочитанных сообщений. Госпожа Америка / Mistress America [Комедия, 2015] BDRip 720p, Mvo [iTunes]

Dracon

30 | 1

4.87 ГБ

В этой теме нет новых непрочитанных сообщений. Госпожа Бовари / Madame Bovary [Драма, 2014] BDRip 1080p, Dvo

salma3

21 | 19

7.8 ГБ

В этой теме нет новых непрочитанных сообщений. Госпожа Бовари / Madame Bovary (Софи Бартез) [Драма, 2014] WEB-DLRip, avo

Dracon

2 | 0

1.45 ГБ


Начать новую тему Ответить на тему  [ 1 сообщение ] 




Для Мосгорсуда, Роскомнадзора и рекламодателей:: mosgorsud-torrent[собачка]yandex.ru