Торрент файл
скачать торрент магнет ссылка Добавлен: 21 дек 2014, 12:00
Размер: 2.49 ГБ
Сидеров: 43
Личеров: 9
Статус: (salma3)
Автор

СообщениеДобавлено: 21 дек 2014, 12:00 

В сети
Супермодератор
Аватара пользователя
Дата регистрации:
15 фев 2012, 16:44
Возраст: 28
Спасибо: 6578 / 2143
Сообщения: 43977
Расплата / Payback

Год выхода: 2007
Жанр: Драма, криминал
Режиссер: Уинстон В. Чемп

В ролях: Костас Мэндилор, Кристофер Аткинс, Энджи Эверхарт, Тэннер Гилл, Стэн Глик, Тони Хейни, Кит Джонс, Кэролайн Кристиан, Лаура Лэйн, Анджела Лавалл, Майкл Леон, Николь Левой

О фильме:
Десять лет назад полицейский Шон Уокер потерял своего напарника. Во время ареста опасного рецидивиста - полного отморозка Билли, он замешкался, и это стоило другу жизни. Его смерть потрясла Уокера. Он едва не прикончил убийцу, и только подоспевшие коллеги сумели остановить его. Преступника осудили на пожизненное заключение, а Шон ушел из полиции и поселился на ранчо. Вдали от городской суеты бывший полицейский надеялся забыть тяготившее его прошлое...Но в планы Билли вовсе не входило сгнить за решеткой. Отсидев 10 лет, он совершает дерзкий побег. Теперь его путь будет отмечен многочисленными трупами. Но главный, кто ему нужен - это Уокер...



Страна: Канада / Cinemavault Releasing, Inc.
Продолжительность: 01:21:48
Перевод: Профессиональный (двухголосый, закадровый)

Файл
Качество: DVDRip
Формат файла: AVI
Видео кодек: XviD
Аудио кодек: AC3
Видео: XviD, 3772 Кбит/с, 716x528
Звук: Русский (АС3 6 ch, 384 Кбит/с), английский (АС3 2 ch, 192 Кбит/с)
Субтитры: Русские, украинские


File: D:ВидеоРасплата.2007.DVDRip.XviD.avi
General
Complete name : D:ВидеоРасплата.2007.DVDRip.XviD.avi
Format : AVI
Format/Info : Audio Video Interleave
Format profile : OpenDML
File size : 2.49 GiB
Duration : 1h 21mn
Overall bit rate : 4 356 Kbps
Writing application : VirtualDubMod 1.5.10.2 (build 2540/release)
Writing library : VirtualDubMod build 2540/release
Video
ID : 0
Format : MPEG-4 Visual
Format profile : Advanced Simple@L5
Format settings, BVOP : 2
Format settings, QPel : No
Format settings, GMC : No warppoints
Format settings, Matrix : Default (MPEG)
Codec ID : XVID
Codec ID/Hint : XviD
Duration : 1h 21mn
Bit rate : 3 772 Kbps
Width : 716 pixels
Height : 528 pixels
Display aspect ratio : 4:3
Frame rate : 25.000 fps
Color space : YUV
Chroma subsampling : 4:2:0
Bit depth : 8 bits
Scan type : Progressive
Compression mode : Lossy
Bits/(Pixel*Frame) : 0.399
Stream size : 2.16 GiB (87%)
Writing library : XviD 1.1.2 (UTC 2006-11-01)
Audio #1
ID : 1
Format : AC-3
Format/Info : Audio Coding 3
Mode extension : CM (complete main)
Format settings, Endianness : Big
Codec ID : 2000
Duration : 1h 21mn
Bit rate mode : Constant
Bit rate : 384 Kbps
Channel(s) : 6 channels
Channel positions : Front: L C R, Side: L R, LFE
Sampling rate : 48.0 KHz
Bit depth : 16 bits
Compression mode : Lossy
Stream size : 225 MiB (9%)
Alignment : Split accross interleaves
Interleave, duration : 192 ms (4.80 video frames)
Interleave, preload duration : 500 ms
Audio #2
ID : 2
Format : AC-3
Format/Info : Audio Coding 3
Mode extension : CM (complete main)
Format settings, Endianness : Big
Codec ID : 2000
Duration : 1h 21mn
Bit rate mode : Constant
Bit rate : 192 Kbps
Channel(s) : 2 channels
Channel positions : Front: L R
Sampling rate : 48.0 KHz
Bit depth : 16 bits
Compression mode : Lossy
Stream size : 112 MiB (4%)
Alignment : Split accross interleaves
Interleave, duration : 192 ms (4.80 video frames)
Interleave, preload duration : 500 ms


_________________
Проголосуй за трекер Открытый торрент трекер - RUS-MEDIA.ORG

Проголосуй Открытый торрент трекер - RUS-MEDIA.ORG



реклама партнёра


Вернуться к началу
 Профиль Отправить личное сообщение  
 
   Похожие торренты   Автор   Торрент   Размер 
В этой теме нет новых непрочитанных сообщений. Расплата 2 / Gomez vs. Tavarès [Боевик, комедия, криминал, 2007] DVDRip-AVC, Mvo

salma3

116 | 61

2.18 ГБ

В этой теме нет новых непрочитанных сообщений. Расплата / The Accountant ( боевик, триллер, драма, криминал, 2016) TS | D

marya111

4820 | 130

1.37 ГБ

В этой теме нет новых непрочитанных сообщений. Расплата / Gomez & Tavarès [Боевик, комедия, криминал, 2003] DVDRip-AVC, Dub

salma3

111 | 43

2.22 ГБ

В этой теме нет новых непрочитанных сообщений. Расплата / The Accountant [Боевик, триллер, драма, криминал, 2016] DVD5, Dub+Sub

salma3

61 | 38

4.28 ГБ

В этой теме нет новых непрочитанных сообщений. Расплата / The Accountant [боевик, триллер, драма, криминал, 2016] BDRip, Dub [лицензия]

salma3

524 | 68

2.18 ГБ

В этой теме нет новых непрочитанных сообщений. Расплата / The Accountant ( боевик, триллер, драма, криминал, 2016) BDRip-AVC | iTunes

marya111

1019 | 92

1.46 ГБ

В этой теме нет новых непрочитанных сообщений. Расплата / The Accountant [Боевик, триллер, драма, криминал, 2016] DVD9, Dub+Avo+Sub [Custom]

salma3

28 | 29

7.36 ГБ


Начать новую тему Ответить на тему  [ 1 сообщение ] 




Для Мосгорсуда, Роскомнадзора и рекламодателей:: mosgorsud-torrent[собачка]yandex.ru