Торрент файл
скачать торрент магнет ссылка Добавлен: 20 дек 2014, 13:01
Размер: 1.47 ГБ
Сидеров: 48
Личеров: 3
Статус: (salma3)
Автор

СообщениеДобавлено: 20 дек 2014, 13:01 

Не в сети
Супермодератор
Аватара пользователя
Дата регистрации:
15 фев 2012, 16:44
Возраст: 27
Спасибо: 5139 / 2090
Сообщения: 17432
Восковая маска / M.D.C. - Maschera di cera

Год выхода: 1997
Жанр: Ужасы
Режиссер: Серджио Стивалетти

В ролях: Роберт Хоссейн, Ромина Монделло, Рикардо Сервенти Лонги, Габриэлла Джорджелли, Умберто Балли, Валери Вальмонд, Джанни Франко, Антонелло Мурру, Даниэль Обер, Романо Ланнелли, Роса Пьянета, Соня Топацо, Массимо Ванни, Альдо Массассо, Сабрина Пеллегрино.

О фильме:
Париж, 1900 год: маленькая девочка Соня становится свидетельницей убийства родителей. Убийство совершается человеком со стальными руками.

Спустя годы, в Риме, Соня знакомится с Борисом Волковым — хозяином музея восковых фигур. Случайно девушка узнает, что при музее есть секретная научная лаборатория, где под руководством Волкова проходят странные эксперименты по оживлению восковых фигур



Страна: Италия, Франция
Продолжительность: 1:38:28
Перевод: Любительский (одноголосый)

Файл
Качество: DVDRip-AVC
Формат файла: AVC
Видео кодек: h.264
Аудио кодек: AC3
Видео: MPEG-4, 716x366, 23.976 fps ~1725 kbps
Звук1: 48 KHz, AC3, 2 ch ~192 Kbps -[AVO]
Звук2: 48 KHz, AC3, 2 ch ~224 Kbps -[English]

General
Unique ID : 203994677119721034222104329102998613628 (0x9977F21A7267F1BFA968BB6876EFAE7C)
Format : Matroska
Format version : Version 4 / Version 2
File size : 1.47 GiB
Duration : 1h 38mn
Overall bit rate : 2 142 Kbps
Encoded date : UTC 2014-12-20 04:12:16
Writing application : mkvmerge v7.3.0 ('Nouages') 64bit built on Oct 22 2014 18:53:34
Writing library : Lavf55.12.0

Video
ID : 1
Format : AVC
Format/Info : Advanced Video Codec
Format profile : High@L4.1
Format settings, CABAC : Yes
Format settings, ReFrames : 6 frames
Codec ID : V_MPEG4/ISO/AVC
Duration : 1h 38mn
Bit rate : 1 725 Kbps
Width : 716 pixels
Height : 366 pixels
Display aspect ratio : 1.738
Original display aspect rat : 1.739
Frame rate mode : Constant
Frame rate : 23.976 fps
Color space : YUV
Chroma subsampling : 4:2:0
Bit depth : 8 bits
Scan type : Progressive
Bits/(Pixel*Frame) : 0.275
Stream size : 1.16 GiB (79%)
Title : MPEG-4, 716x366, 23.976 fps ~1725 kbps
Writing library : x264 core 142 r2479 dd79a61
Encoding settings : cabac=1 / ref=6 / deblock=1:-2:-1 / analyse=0x3:0x113 / me=umh / subme=9 / psy=1 / psy_rd=1.00:0.00 / mixed_ref=1 / me_range=24 / chroma_me=1 / trellis=2 / 8x8dct=1 / cqm=0 / deadzone=21,11 / fast_pskip=0 / chroma_qp_offset=-2 / threads=3 / lookahead_threads=1 / sliced_threads=0 / nr=0 / decimate=1 / interlaced=0 / bluray_compat=0 / constrained_intra=0 / bframes=8 / b_pyramid=2 / b_adapt=2 / b_bias=0 / direct=3 / weightb=1 / open_gop=0 / weightp=2 / keyint=240 / keyint_min=24 / scenecut=40 / intra_refresh=0 / rc_lookahead=50 / rc=2pass / mbtree=1 / bitrate=1725 / ratetol=1.0 / qcomp=0.60 / qpmin=0 / qpmax=69 / qpstep=4 / cplxblur=20.0 / qblur=0.5 / vbv_maxrate=62500 / vbv_bufsize=78125 / nal_hrd=none / filler=0 / ip_ratio=1.40 / aq=1:1.00
Language : English
Default : Yes
Forced : No
Color primaries : BT.601 NTSC
Transfer characteristics : BT.709
Matrix coefficients : BT.601
Color range : Limited
_STATISTICS_WRITING_APP : mkvmerge v7.3.0 ('Nouages') 64bit built on Oct 22 2014 18:53:34
_STATISTICS_WRITING_DATE_UT : 2014-12-20 04:12:16
_STATISTICS_TAGS : BPS DURATION NUMBER_OF_FRAMES NUMBER_OF_BYTES
DURATION : 01:38:28.028000000
NUMBER_OF_FRAMES : 141651
NUMBER_OF_BYTES : 1273372121

Audio #1
ID : 2
Format : AC-3
Format/Info : Audio Coding 3
Mode extension : CM (complete main)
Format settings, Endianness : Big
Codec ID : A_AC3
Duration : 1h 38mn
Bit rate mode : Constant
Bit rate : 192 Kbps
Channel(s) : 2 channels
Channel positions : Front: L R
Sampling rate : 48.0 KHz
Bit depth : 16 bits
Compression mode : Lossy
Stream size : 135 MiB (9%)
Title : 48 KHz, AC3, 2 ch ~192 Kbps - AVO
Language : Russian
Default : Yes
Forced : No
_STATISTICS_WRITING_APP : mkvmerge v7.3.0 ('Nouages') 64bit built on Oct 22 2014 18:53:34
_STATISTICS_WRITING_DATE_UT : 2014-12-20 04:12:16
_STATISTICS_TAGS : BPS DURATION NUMBER_OF_FRAMES NUMBER_OF_BYTES
DURATION : 01:38:28.000000000
NUMBER_OF_FRAMES : 184625
NUMBER_OF_BYTES : 141792000

Audio #2
ID : 3
Format : AC-3
Format/Info : Audio Coding 3
Format profile : Dolby Digital
Mode extension : CM (complete main)
Format settings, Endianness : Big
Codec ID : A_AC3
Duration : 1h 38mn
Bit rate mode : Constant
Bit rate : 224 Kbps
Channel(s) : 2 channels
Channel positions : Front: L R
Sampling rate : 48.0 KHz
Bit depth : 16 bits
Compression mode : Lossy
Stream size : 158 MiB (10%)
Title : 48 KHz, AC3, 2 ch ~224 Kbps - Original
Language : English
Default : No
Forced : No
_STATISTICS_WRITING_APP : mkvmerge v7.3.0 ('Nouages') 64bit built on Oct 22 2014 18:53:34
_STATISTICS_WRITING_DATE_UT : 2014-12-20 04:12:16
_STATISTICS_TAGS : BPS DURATION NUMBER_OF_FRAMES NUMBER_OF_BYTES
DURATION : 01:38:28.000000000
NUMBER_OF_FRAMES : 184625
NUMBER_OF_BYTES : 165424000

Menu
00:00:00.000 : :Chapter 1
00:08:52.240 : :Chapter 2
00:18:01.872 : :Chapter 3
00:25:06.004 : :Chapter 4
00:28:57.986 : :Chapter 5
00:36:56.756 : :Chapter 6
00:39:05.510 : :Chapter 7
00:42:36.637 : :Chapter 8
00:49:52.615 : :Chapter 9
00:56:59.082 : :Chapter 10
01:03:17.752 : :Chapter 11
01:09:36.547 : :Chapter 12
01:14:45.564 : :Chapter 13
01:21:25.214 : :Chapter 14
01:27:49.514 : :Chapter 15
01:35:37.899 : :Chapter 16


_________________



реклама партнёра


Вернуться к началу
 Профиль Отправить личное сообщение  
 
   Похожие торренты   Автор   Торрент   Размер 
В этой теме нет новых непрочитанных сообщений. La Maschera Di Cera - Le Porte Del Domani (Boxset Limited Two Versions) [2013, Progressive Rock, MP3]

PriZraK

0 | 1

208.68 МБ

В этой теме нет новых непрочитанных сообщений. Маска / Mugamoodi [боевик, комедия, криминал, 2011] DVDRip, sub

salma3

3 | 5

1.46 ГБ

В этой теме нет новых непрочитанных сообщений. Маска смерти / Mask of Death [Боевик, триллер, 1996] DVDRip, Avo

salma3

69 | 28

1.4 ГБ

В этой теме нет новых непрочитанных сообщений. Гемоглобин / Bleeders [ужасы, 1997] DVDRip, Dvo

salma3

11 | 3

1.37 ГБ

В этой теме нет новых непрочитанных сообщений. Маска обезьяны / The Monkey's Mask [триллер, криминал, детектив, 2000] DVDRip, Mvo

salma3

0 | 4

1.25 ГБ

В этой теме нет новых непрочитанных сообщений. Грузовики / Trucks [Ужасы, Фантастика, 1997] DVDRip, Mvo

salma3

1 | 2

1.49 ГБ

В этой теме нет новых непрочитанных сообщений. Снеговик / Jack Frost [Ужасы, комедия, 1997] DVDRip, Avo

salma3

16 | 4

1.48 ГБ


Начать новую тему Ответить на тему  [ 1 сообщение ] 




Для Мосгорсуда, Роскомнадзора и рекламодателей:: mosgorsud-torrent[собачка]yandex.ru