Торрент файл
скачать торрент магнет ссылка Добавлен: 16 дек 2014, 16:35
Размер: 1.96 ГБ
Сидеров: 554
Личеров: 17
Статус: (Dracon)
Автор

СообщениеДобавлено: 16 дек 2014, 16:35 

Не в сети
Зам. Админа
Аватара пользователя
Дата регистрации:
02 дек 2010, 12:39
Спасибо: 12461 / 214
Сообщения: 27968
Год выпуска: 2014
Жанр: Фантастика, триллер
Выпущено: Испания, Болгария, Green Moon, Nu Boyana Viburno
Режиссер: Габе Ибаньес
В ролях: Антонио Бандерас, Биргитта Йорт Сёренсен, Мелани Гриффит, Дилан МакДермотт, Роберт Форстер, Тим МакИннерни, Энди Найман, Дэвид Райалл, Эндрю Тирнан, Криста Кэмпбелл

О фильме: Фильм «Страховщик» - фантастический боевик о постапокалиптическом будущем, где люди вынуждены сосуществовать с роботами.

Техногенная катастрофа, приключившаяся на планете, разделила мир на благополучный Город и Запретную зону, ставшую свалкой отходов цивилизации. Над Городом отныне светит искусственное солнце и льют искусственные дожди, а его жителей обслуживают многофункциональные роботы – продукт компании ROC. Боты-помощники снабжены специальным устройством, не позволяющим вредить своим хозяевам, поэтому ROC гарантирует владельцам надежность и безотказность умных механизмов.

В безопасности «автоматов» никто не сомневается, пока сотрудник компании, страховщик Жан Вокан, не сталкивается с прецедентом: новая модель домашнего помощника временно стала неуправляемой. Немногим позже копы, охраняющие Город, обезвреживают другого, уже переделанного, робота, ворующего запчасти своих «коллег». После этого Вокан начинает подозревать, что киборги научились себя изменять. К несчастью, переживающая кризис компания с мнением зануды страховщика никак не согласна...



Качество: BDRip (AVC)
Видео: MPEG-4 AVC, 1659 Кбит/с, 1024x434, 23.976 кадр/с
Аудио: Русский, английский (АС3, 6 ch, 448 Кбит/с)
Продолжительность: 01:49:54
Перевод: Дублированный (Лицензия BD Rus)
Субтитры: Русские, английские

General
Unique ID : 203151419753483146227653191943258034962 (0x98D58A4E237F6F728832C93CE3F6D312)
Complete name : C:Automata.2014.D.BDRip.AVC.ExKinoRay.mkv
Format : Matroska
Format version : Version 2
File size : 1.96 GiB
Duration : 1h 49mn
Overall bit rate : 2 557 Kbps
Movie name : Autómata 2014 from ExKinoRay
Encoded date : UTC 2014-12-16 00:47:11
Writing application : mkvmerge v4.9.1 ('Ich will') built on Jul 11 2011 23:53:15
Writing library : libebml v1.2.1 + libmatroska v1.1.1

Video
ID : 1
Format : AVC
Format/Info : Advanced Video Codec
Format profile : High@L4.1
Format settings, CABAC : Yes
Format settings, ReFrames : 9 frames
Codec ID : V_MPEG4/ISO/AVC
Duration : 1h 49mn
Bit rate : 1 659 Kbps
Width : 1 024 pixels
Height : 434 pixels
Display aspect ratio : 2.35:1
Frame rate mode : Constant
Frame rate : 23.976 fps
Color space : YUV
Chroma subsampling : 4:2:0
Bit depth : 8 bits
Scan type : Progressive
Bits/(Pixel*Frame) : 0.156
Stream size : 1.24 GiB (63%)
Title : Enigma-Vladislav71
Writing library : x264 core 133 r2334 a3ac64b
Encoding settings : cabac=1 / ref=9 / deblock=1:-2:-2 / analyse=0x3:0x113 / me=umh / subme=11 / psy=1 / psy_rd=1.00:0.15 / mixed_ref=1 / me_range=32 / chroma_me=1 / trellis=2 / 8x8dct=1 / cqm=0 / deadzone=21,11 / fast_pskip=0 / chroma_qp_offset=-3 / threads=12 / lookahead_threads=2 / sliced_threads=0 / nr=0 / decimate=0 / interlaced=0 / bluray_compat=0 / constrained_intra=0 / bframes=9 / b_pyramid=2 / b_adapt=2 / b_bias=0 / direct=3 / weightb=1 / open_gop=0 / weightp=2 / keyint=240 / keyint_min=23 / scenecut=40 / intra_refresh=0 / rc=2pass / mbtree=0 / bitrate=1659 / ratetol=1.0 / qcomp=0.60 / qpmin=0 / qpmax=69 / qpstep=4 / cplxblur=20.0 / qblur=0.5 / ip_ratio=1.40 / pb_ratio=1.30 / aq=1:1.00
Language : English
Default : Yes
Forced : No
Color primaries : BT.709
Transfer characteristics : BT.709
Matrix coefficients : BT.709

Audio #1
ID : 2
Format : AC-3
Format/Info : Audio Coding 3
Mode extension : CM (complete main)
Format settings, Endianness : Big
Codec ID : A_AC3
Duration : 1h 49mn
Bit rate mode : Constant
Bit rate : 448 Kbps
Channel(s) : 6 channels
Channel positions : Front: L C R, Side: L R, LFE
Sampling rate : 48.0 KHz
Bit depth : 16 bits
Compression mode : Lossy
Stream size : 352 MiB (18%)
Title : DUB BD Rus
Language : Russian
Default : Yes
Forced : No

Audio #2
ID : 3
Format : AC-3
Format/Info : Audio Coding 3
Mode extension : CM (complete main)
Format settings, Endianness : Big
Codec ID : A_AC3
Duration : 1h 49mn
Bit rate mode : Constant
Bit rate : 448 Kbps
Channel(s) : 6 channels
Channel positions : Front: L C R, Side: L R, LFE
Sampling rate : 48.0 KHz
Bit depth : 16 bits
Compression mode : Lossy
Stream size : 352 MiB (18%)
Language : English
Default : No
Forced : No

Text #1
ID : 4
Format : UTF-8
Codec ID : S_TEXT/UTF8
Codec ID/Info : UTF-8 Plain Text
Language : Russian
Default : No
Forced : No

Text #2
ID : 5
Format : UTF-8
Codec ID : S_TEXT/UTF8
Codec ID/Info : UTF-8 Plain Text
Language : English
Default : No
Forced : No

Menu
00:00:00.000 : :Chapter 01
00:09:40.453 : :Chapter 02
00:18:46.916 : :Chapter 03
00:28:32.835 : :Chapter 04
00:39:07.094 : :Chapter 05
00:47:33.475 : :Chapter 06
00:56:55.954 : :Chapter 07
01:06:05.503 : :Chapter 08
01:17:27.809 : :Chapter 09
01:26:11.957 : :Chapter 10
01:34:06.474 : :Chapter 11
01:44:53.412 : :Chapter 12
01:49:54.087 : :Chapter 13









реклама партнёра


Вернуться к началу
 Профиль  
 
   Похожие торренты   Автор   Торрент   Размер 
В этой теме нет новых непрочитанных сообщений. Страховщик / Automata [фантастика, триллер, 2014] BDRip 720p, Dub+Sub [Лицензия]

Dracon

798 | 29

3.55 ГБ

В этой теме нет новых непрочитанных сообщений. Страховщик / Automata [фантастика, триллер, 2014] BDRip 720p, Dub [iTunes]

Dracon

249 | 21

4.96 ГБ

В этой теме нет новых непрочитанных сообщений. Страховщик / Automata [фантастика, триллер, 2014] BDRip 1080p, dub+sub [Чистый звук]

Dracon

28 | 2

8.56 ГБ

В этой теме нет новых непрочитанных сообщений. Страховщик / Automata [фантастика, триллер, 2014] BDRip 720p, dub [Чистый звук]

Dracon

65 | 8

4.66 ГБ

В этой теме нет новых непрочитанных сообщений. Страховщик / Autómata [фантастика, триллер, 2014] WEB-DL 720p, avo+sub

Dracon

1404 | 61

3.52 ГБ

В этой теме нет новых непрочитанных сообщений. Страховщик / Autómata [фантастика, триллер, 2014] WEB-DLRip, avo

Dracon

982 | 7

1.46 ГБ

В этой теме нет новых непрочитанных сообщений. Страховщик / Autómata [фантастика, триллер, 2014] WEB-DL 720p, dub [Звук с TS]

Dracon

668 | 8

3.52 ГБ


Начать новую тему Ответить на тему  [ 1 сообщение ] 




Для Мосгорсуда, Роскомнадзора и рекламодателей:: mosgorsud-torrent[собачка]yandex.ru