Торрент файл
скачать торрент магнет ссылка Добавлен: 15 дек 2014, 23:51
Размер: 2.27 ГБ
Сидеров: 398
Личеров: 12
Статус: (salma3)
Автор

СообщениеДобавлено: 15 дек 2014, 23:51 

Не в сети
Супермодератор
Аватара пользователя
Дата регистрации:
15 фев 2012, 16:44
Возраст: 27
Спасибо: 5130 / 2089
Сообщения: 17350
Год выхода: 2014
Жанр: семейный, комедия
Режиссер: Алекс Замм

В ролях: Ларри-кабельщик, Брайан Степанек, Кеннеди Клементс, Линдсэй Максвелл, Кирстен Робек, Дэвид Милчард, Мередит МакГичи, Мэтти Финочио, Алекс Замм, Грэйсин Шиней

О фильме:
Для каждого Рождество несет в себе нечто свое. Для кого-то это пора чудес и различных приключений. В это время пахнет печеньем, повсюду слышно рождественское песнопение, морозец приятно покусывает носы и щечки. Люди бегают по городу. Они, в поисках подарков своим близким, готовы зайти в каждый магазин. Их желание приобрести все самое оригинальное совершенно оправдано. Ведь каждый желает удивить. У главного героя этой картины свои стремления в канун Рождества. Он так же ценит все традиции, проводит праздник с семьей за вкусно приготовленным ужином. Покупает подарки своим родным. Но в приоритете украшения. Именно они несут рождественское настроение. Их не бывает много. От них лица людей наполняются счастьем. С повседневных, они меняются на восторженно - праздничные. Можно обойтись без колядок и пряников, а вот не украсить иллюминациями все в округе это просто невообразимо. На подобное способны лишь монстры. Похищение Рождества это преступление. И каждый, кто осмелиться пойти против традиций, должен быть наказан. Угрозой является мэр, со своими новыми правилами. Но Ларри не позволит лишить его праздника.



Выпущено: США / Twentieth Century Fox Film Corporation, WWE Studios
Продолжительность: 01:33:31
Озвучивание: Профессиональное (многоголосое) Официальный

Файл
Качество: HDRip (AVC)
Видео: MPEG-4 AVC, 2844 Кбит/с, 1024x576
Аудио: Русский (AC3, 2 ch, 192 Кбит/с), английский (AC3, 6 ch, 448 Кбит/с)
Субтитры: Английские

General
Unique ID : 245097925443996583067640775518010933421 (0xB86424B5563166B09484A302355B00AD)
Complete name : C:Jingle.All.The.Way.2.2014.P.HDRip.AVC.ExKinoRay.mkv
Format : Matroska
Format version : Version 2
File size : 2.27 GiB
Duration : 1h 33mn
Overall bit rate : 3 481 Kbps
Movie name : Jingle All The Way 2 2014 from ExKinoRay
Encoded date : UTC 2014-12-15 18:38:51
Writing application : mkvmerge v4.9.1 ('Ich will') built on Jul 11 2011 23:53:15
Writing library : libebml v1.2.1 + libmatroska v1.1.1

Video
ID : 1
Format : AVC
Format/Info : Advanced Video Codec
Format profile : High@L4.1
Format settings, CABAC : Yes
Format settings, ReFrames : 9 frames
Codec ID : V_MPEG4/ISO/AVC
Duration : 1h 33mn
Bit rate : 2 844 Kbps
Width : 1 024 pixels
Height : 576 pixels
Display aspect ratio : 16:9
Frame rate mode : Constant
Frame rate : 23.976 fps
Color space : YUV
Chroma subsampling : 4:2:0
Bit depth : 8 bits
Scan type : Progressive
Bits/(Pixel*Frame) : 0.201
Stream size : 1.81 GiB (80%)
Title : Enigma-Vladislav71
Writing library : x264 core 133 r2334 a3ac64b
Encoding settings : cabac=1 / ref=9 / deblock=1:-1:-2 / analyse=0x3:0x113 / me=umh / subme=11 / psy=1 / psy_rd=1.00:0.10 / mixed_ref=1 / me_range=32 / chroma_me=1 / trellis=2 / 8x8dct=1 / cqm=0 / deadzone=21,11 / fast_pskip=0 / chroma_qp_offset=-3 / threads=12 / lookahead_threads=2 / sliced_threads=0 / nr=0 / decimate=0 / interlaced=0 / bluray_compat=0 / constrained_intra=0 / bframes=9 / b_pyramid=2 / b_adapt=2 / b_bias=0 / direct=3 / weightb=1 / open_gop=0 / weightp=2 / keyint=240 / keyint_min=23 / scenecut=40 / intra_refresh=0 / rc=2pass / mbtree=0 / bitrate=2844 / ratetol=1.0 / qcomp=0.60 / qpmin=0 / qpmax=69 / qpstep=4 / cplxblur=20.0 / qblur=0.5 / ip_ratio=1.40 / pb_ratio=1.30 / aq=1:1.00
Language : English
Default : Yes
Forced : No
Color primaries : BT.709
Transfer characteristics : BT.709
Matrix coefficients : BT.709

Audio #1
ID : 2
Format : AC-3
Format/Info : Audio Coding 3
Mode extension : CM (complete main)
Format settings, Endianness : Big
Codec ID : A_AC3
Duration : 1h 33mn
Bit rate mode : Constant
Bit rate : 192 Kbps
Channel(s) : 2 channels
Channel positions : Front: L R
Sampling rate : 48.0 KHz
Bit depth : 16 bits
Compression mode : Lossy
Stream size : 128 MiB (6%)
Title : Профессиональный многоголосый
Language : Russian
Default : Yes
Forced : No

Audio #2
ID : 3
Format : AC-3
Format/Info : Audio Coding 3
Mode extension : CM (complete main)
Format settings, Endianness : Big
Codec ID : A_AC3
Duration : 1h 33mn
Bit rate mode : Constant
Bit rate : 448 Kbps
Channel(s) : 6 channels
Channel positions : Front: L C R, Side: L R, LFE
Sampling rate : 48.0 KHz
Bit depth : 16 bits
Compression mode : Lossy
Stream size : 300 MiB (13%)
Language : English
Default : No
Forced : No

Text
ID : 4
Format : UTF-8
Codec ID : S_TEXT/UTF8
Codec ID/Info : UTF-8 Plain Text
Language : English
Default : No
Forced : No

Menu
00:00:00.000 : en:00:00:00.000
00:02:25.687 : en:00:02:25.687
00:05:05.889 : en:00:05:05.889
00:08:53.366 : en:00:08:53.366
00:11:17.427 : en:00:11:17.427
00:15:06.072 : en:00:15:06.072
00:19:03.976 : en:00:19:03.976
00:21:41.717 : en:00:21:41.717
00:24:39.395 : en:00:24:39.395
00:27:57.384 : en:00:27:57.384
00:32:03.755 : en:00:32:03.755
00:34:20.976 : en:00:34:20.976
00:36:20.804 : en:00:36:20.804
00:40:45.526 : en:00:40:45.526
00:43:41.536 : en:00:43:41.536
00:48:57.852 : en:00:48:57.852
00:51:12.069 : en:00:51:12.069
00:55:49.596 : en:00:55:49.596
00:58:49.234 : en:00:58:49.234
01:00:42.681 : en:01:00:42.681
01:05:19.666 : en:01:05:19.666
01:07:40.932 : en:01:07:40.932
01:10:26.139 : en:01:10:26.139
01:13:11.304 : en:01:13:11.304
01:15:29.608 : en:01:15:29.608
01:19:42.861 : en:01:19:42.861
01:25:10.397 : en:01:25:10.397
01:28:08.283 : en:01:28:08.283





Релиз от: Авторы релиза:


_________________



реклама партнёра


Вернуться к началу
 Профиль Отправить личное сообщение  
 
   Похожие торренты   Автор   Торрент   Размер 
В этой теме нет новых непрочитанных сообщений. Подарок на Рождество 2 / Jingle All the Way 2 [семейный, комедия, 2014] WEB-DLRip, Mvo

salma3

404 | 10

1.37 ГБ

В этой теме нет новых непрочитанных сообщений. Подарок на Рождество 2 / Jingle All the Way 2 [семейный, комедия, 2014] WEB-DL 720p, Mvo+Sub

salma3

394 | 17

3.04 ГБ

В этой теме нет новых непрочитанных сообщений. Подарок на Рождество / Jingle All the Way [семейный, комедия, 1996] HDRip, Mvo [Лицензия]

salma3

94 | 6

1.45 ГБ

В этой теме нет новых непрочитанных сообщений. Подарок на Рождество / Jingle All The Way [Детский, комедия, семейный, 1996] DVD5, Mvo [Лицензия]

salma3

21 | 7

4.24 ГБ

В этой теме нет новых непрочитанных сообщений. Подарок с характером [семейный, приключения, комедия, 2014] HDRip

Dracon

22 | 3

1.37 ГБ

В этой теме нет новых непрочитанных сообщений. Подарок с характером [семейный, приключения, комедия, 2014] WEBRip

Dracon

3907 | 66

1.37 ГБ

В этой теме нет новых непрочитанных сообщений. Подарок с характером [семейный, приключения, комедия, 2014] BDRip 720p

Dracon

91 | 8

4.38 ГБ


Начать новую тему Ответить на тему  [ 1 сообщение ] 




Для Мосгорсуда, Роскомнадзора и рекламодателей:: mosgorsud-torrent[собачка]yandex.ru