Торрент файл
скачать торрент магнет ссылка Добавлен: 15 дек 2014, 21:09
Размер: 1.37 ГБ
Сидеров: 78
Личеров: 13
Статус: (salma3)
Автор

СообщениеДобавлено: 15 дек 2014, 21:09 

Не в сети
Супермодератор
Аватара пользователя
Дата регистрации:
15 фев 2012, 16:44
Возраст: 28
Спасибо: 6589 / 2145
Сообщения: 44145
К Элизе / Para Elisa

Год выхода: 2013
Жанр: Триллер
Режиссер: Жуанра Фернандес

В ролях: Ана Турпин, Она Косамикела, Луиса Гаваса, Хесус Каба, Шила Понце, Хавьер Перейра, Пеп Антон Муньос, Энрике Вильен, Пабло Винья, Фредерик Томас

О фильме:
Сюжет фильма крутится вокруг студентки Анны, которая нуждается в деньгах для оплаты своей учебы. Она обращается по объявлению в семью, которой требуется нянька. На работу ее берут, только вот в качестве живой куклы для, видимо не совсем здоровой, Элизы. А если кукла себя плохо ведет, то наказание не заставит себя долго ждать.



Страна: Испания
Студия: Produccions del Primer Cinquena
Продолжительность: 01:11:27
Перевод: Профессиональный [многоголосый]

Файл
Качество: HDTVRip-AVC
Формат файла: AVC
Видео кодек: MPEG-4
Аудио кодек: AC3
Видео: 2300 Кбит/с, 1024x424, 25.000 кадр/с
Звук: Русский (АС3, 6 ch, 448 Кбит/с)

Семпл

Общее
Полное имя : K.Elize.2013.x264.HDTVRip(AVC).MediaClub.mkv
Формат : Matroska
Версия формата : Version 2
Размер файла : 1,37 Гбайт
Продолжительность : 1 ч. 11 м.
Общий поток : 2748 Кбит/сек
Название фильма : MediaClub
Дата кодирования : UTC 2014-12-15 14:25:02
Программа кодирования : mkvmerge v5.4.0 ('Piper') built on Mar 10 2012 13:34:39
Библиотека кодирования : libebml v1.2.3 + libmatroska v1.3.0

Видео
Идентификатор : 1
Формат : AVC
Формат/Информация : Advanced Video Codec
Профиль формата : High@L4.1
Параметр CABAC формата : Да
Параметр ReFrames формата : 10 кадров
Идентификатор кодека : V_MPEG4/ISO/AVC
Продолжительность : 1 ч. 11 м.
Битрейт : 2300 Кбит/сек
Ширина : 1024 пикселя
Высота : 424 пикселя
Соотношение сторон : 2,40:1
Режим частоты кадров : Постоянный
Частота кадров : 25,000 кадров/сек
Цветовое пространство : YUV
Субдискретизация насыщенности : 4:2:0
Битовая глубина : 8 бит
Тип развёртки : Прогрессивная
Бит/(Пиксели*Кадры) : 0.212
Размер потока : 1,12 Гбайт (82%)
Библиотека кодирования : x264 core 125 r2208 d9d2288
Настройки программы : cabac=1 / ref=10 / deblock=1:-3:-2 / analyse=0x3:0x133 / me=umh / subme=10 / psy=1 / psy_rd=1.00:0.20 / mixed_ref=1 / me_range=48 / chroma_me=1 / trellis=2 / 8x8dct=1 / cqm=0 / deadzone=21,11 / fast_pskip=0 / chroma_qp_offset=-3 / threads=6 / lookahead_threads=1 / sliced_threads=0 / nr=0 / decimate=0 / interlaced=0 / bluray_compat=0 / constrained_intra=0 / bframes=8 / b_pyramid=2 / b_adapt=2 / b_bias=0 / direct=3 / weightb=1 / open_gop=0 / weightp=2 / keyint=250 / keyint_min=25 / scenecut=40 / intra_refresh=0 / rc=2pass / mbtree=0 / bitrate=2300 / ratetol=1.0 / qcomp=0.60 / qpmin=0 / qpmax=69 / qpstep=4 / cplxblur=20.0 / qblur=0.5 / ip_ratio=1.40 / pb_ratio=1.30 / aq=1:1.00
Default : Да
Forced : Нет

Аудио
Идентификатор : 2
Формат : AC-3
Формат/Информация : Audio Coding 3
Расширение режима : CM (complete main)
Параметр Endianness формата : Big
Идентификатор кодека : A_AC3
Продолжительность : 1 ч. 11 м.
Вид битрейта : Постоянный
Битрейт : 448 Кбит/сек
Каналы : 6 каналов
Расположение каналов : Front: L C R, Side: L R, LFE
Частота : 48,0 КГц
Битовая глубина : 16 бит
Метод сжатия : С потерями
Размер потока : 229 Мбайт (16%)
Язык : Russian
Default : Да
Forced : Нет

Релиз от:


_________________
Проголосуй за трекер Открытый торрент трекер - RUS-MEDIA.ORG

Проголосуй Открытый торрент трекер - RUS-MEDIA.ORG



реклама партнёра


Вернуться к началу
 Профиль Отправить личное сообщение  
 
   Похожие торренты   Автор   Торрент   Размер 
В этой теме нет новых непрочитанных сообщений. К Элизе /  Para Elisa (Жуанра Фернандес) [Триллер, 2013] WEB-DLRip, Mvo

Dracon

5 | 2

1.36 ГБ

В этой теме нет новых непрочитанных сообщений. К Элизе /  Para Elisa (Жуанра Фернандес) [Триллер, 2013] WEB-DL 1080p, Mvo

Dracon

42 | 3

2.29 ГБ

В этой теме нет новых непрочитанных сообщений. Адский дом / Películas para no dormir: Para entrar a vivir [ужасы, триллер, 2006] BDRip 720p, Dvo

salma3

65 | 12

4.36 ГБ

В этой теме нет новых непрочитанных сообщений. Твое бикини в моем чемодане / Solo para dos (Роберто Сантьяго) [комедия, 2013] DVDRip, Mvo

Dracon

460 | 29

1.46 ГБ

В этой теме нет новых непрочитанных сообщений. Терпеливый / Tarde para la ira [триллер, 2016] HDRip-AVC, Avo

salma3

437 | 66

813.08 МБ

В этой теме нет новых непрочитанных сообщений. Терпеливый / Tarde para la ira [триллер, 2016] WEB-DLRip, Avo

salma3

1476 | 169

1.37 ГБ

В этой теме нет новых непрочитанных сообщений. Elisa Marin SPANISH (2017) HD 1080p

salma3

0 | 0

3.09 ГБ


Начать новую тему Ответить на тему  [ 1 сообщение ] 




Для Мосгорсуда, Роскомнадзора и рекламодателей:: mosgorsud-torrent[собачка]yandex.ru