Торрент файл
скачать торрент магнет ссылка Добавлен: 15 дек 2014, 00:38
Размер: 1.38 ГБ
Сидеров: 316
Личеров: 13
Статус: (salma3)
Автор

СообщениеДобавлено: 15 дек 2014, 00:38 

Не в сети
Супермодератор
Аватара пользователя
Дата регистрации:
15 фев 2012, 16:44
Возраст: 28
Спасибо: 7163 / 2147
Сообщения: 61887
Бункер 11 / Outpost 11

Год выхода: 2012
Жанр: Фантастика
Режиссер: Энтони Вудли

В ролях: Билли Кларк, Люк Хили, Бернард Хилл, Джошуа Майерс-Купер, Грэхем

О фильме:
Три солдата несут службу в засекреченном бункере за пределами Арктического круга. Отрезанные от всего мира, они годами не получают указаний и даже не знают, как обстоят дела на войне. Но однажды их обыденность нарушается долгожданным сообщением Генштаба. Впрочем, все ли они обрадованы перспективой вернуться домой?



Выпущено: Великобритания, Outpost 11, Future Masters of Technology
Продолжительность: 01:30:10
Озвучивание: Любительское (одноголосое) [Васька Куролесов]

Файл
Качество: HDRip
Формат файла: AVI
Видео кодек: XviD
Аудио кодек: AC3
Видео: XviD, 1986 Кбит/с, 720x304
Аудио: AC3, 2 ch, 192 Кбит/с

General
Complete name : D:TorrentsOutpost.11.2012.HDRip.by.ShuLeR.avi
Format : AVI
Format/Info : Audio Video Interleave
File size : 1.38 GiB
Duration : 1h 30mn
Overall bit rate : 2 188 Kbps

Video
ID : 0
Format : MPEG-4 Visual
Format profile : Advanced Simple@L5
Format settings, BVOP : 1
Format settings, QPel : No
Format settings, GMC : No warppoints
Format settings, Matrix : Default (MPEG)
Codec ID : XVID
Codec ID/Hint : XviD
Duration : 1h 30mn
Bit rate : 1 986 Kbps
Width : 720 pixels
Height : 304 pixels
Display aspect ratio : 2.35:1
Frame rate : 25.000 fps
Color space : YUV
Chroma subsampling : 4:2:0
Bit depth : 8 bits
Scan type : Progressive
Compression mode : Lossy
Bits/(Pixel*Frame) : 0.363
Stream size : 1.25 GiB (91%)
Writing library : XviD 1.2.1 (UTC 2008-12-04)

Audio
ID : 1
Format : AC-3
Format/Info : Audio Coding 3
Mode extension : CM (complete main)
Format settings, Endianness : Big
Codec ID : 2000
Duration : 1h 30mn
Bit rate mode : Constant
Bit rate : 192 Kbps
Channel(s) : 2 channels
Channel positions : Front: L R
Sampling rate : 48.0 KHz
Bit depth : 16 bits
Compression mode : Lossy
Stream size : 124 MiB (9%)
Alignment : Split accross interleaves
Interleave, duration : 40 ms (1.00 video frame)
Interleave, preload duration : 500 ms


_________________
Проголосуй за трекер Открытый торрент трекер - RUS-MEDIA.ORG

Проголосуй Открытый торрент трекер - RUS-MEDIA.ORG


Вернуться к началу
 Профиль Отправить личное сообщение  
 
   Похожие торренты   Автор   Торрент   Размер 
В этой теме нет новых непрочитанных сообщений. Потрошитель разума / The Outpost [ужасы, фантастика, 1995] DVDRip, 2Avo+Mvo

salma3

57 | 3

1.46 ГБ

В этой теме нет новых непрочитанных сообщений. Проект 12: Бункер / Project 12: The Bunker [фантастика, боевик, триллер, приключения, 2016] DVDRip, Avo

salma3

141 | 53

745.95 МБ

В этой теме нет новых непрочитанных сообщений. Проект 12: Бункер / Project 12: The Bunker (Джейми Фалеро / Jaime Falero) [2016г., Испания, фантастика, боевик, триллер, приключения, WEB-DLRip] VO

Alfredovich

42 | 8

760.22 МБ

В этой теме нет новых непрочитанных сообщений. Бункер / The Bunker [ужасы, триллер, военный, 2001] DVDRip-AVC, Mvo

salma3

73 | 8

743.58 МБ

В этой теме нет новых непрочитанных сообщений. Бункер / Downfall / Der Untergang [драма, военный, биография, 2004] BDRip 1080p, Mvo

salma3

0 | 2

23.78 ГБ

В этой теме нет новых непрочитанных сообщений. Бункер / Downfall / Der Untergang [Драма, военный, история, биография, 2004] BDRemux 1080p, Mvo

salma3

0 | 0

34.15 ГБ

В этой теме нет новых непрочитанных сообщений. Girls in White 2012 #3 / Девушки В Белом 2012 #3 (Girlfriends Films) [2012 г., Lesbian Sex, HDRip]

salma3

3 | 1

1.98 ГБ


Начать новую тему Ответить на тему  [ 1 сообщение ] 




Для Мосгорсуда, Роскомнадзора и рекламодателей:: mosgorsud-torrent[собачка]yandex.ru
cron