Торрент файл
скачать торрент магнет ссылка Добавлен: 14 дек 2014, 11:52
Размер: 2.04 ГБ
Сидеров: 83
Личеров: 2
Статус: (Dracon)
Автор

СообщениеДобавлено: 14 дек 2014, 11:52 

Не в сети
Зам. Админа
Аватара пользователя
Дата регистрации:
02 дек 2010, 12:39
Спасибо: 12461 / 214
Сообщения: 27968
Год выхода: 2014
Жанр: Триллер, Драма, Детектив
Режиссер: Дэвид Финчер
В ролях: Бен Аффлек, Розамунд Пайк, Кэрри Кун, Ким Диккенс, Нил Патрик Харрис, Тайлер Перри, Патрик Фьюджит, Бойд Холбрук, Мисси Пайл, Эмили Ратажковски

О фильме:
Все было готово для празднования пятилетнего юбилея супружеской жизни, когда вдруг необъяснимо пропал один из виновников торжества. Остались следы борьбы в доме, кровь, которую явно пытались стереть, — и цепочка «ключей» в игре под названием «охота за сокровищами»; красивая, умная и невероятно изобретательная жена ежегодно устраивала ее для своего обожаемого мужа. И похоже, что эти «ключи» — размещенные ею тут и там странные записки и не менее странные безделушки — дают единственный шанс пролить свет на судьбу исчезнувшей. Вот только не придется ли «охотнику» в процессе поиска раскрыть миру и пару-тройку собственных малосимпатичных тайн?

Кинопоиск   IMDB

Качество: WEB-DLRip
Видео: XviD, 720x304, 23.976 fps, 1687 kbit/s
Аудио: AC3, 48.0 KHz, 2 ch, 256 Kbit/s
Продолжительность: 02:29:15
Перевод: Дублированный [чистый звук] Официальный

DownloadsIs4eznuvsha9.2014.D.WEB-DLRip.2100MB.avi
  General
    Complete name : DownloadsIs4eznuvsha9.2014.D.WEB-DLRip.2100MB.avi
    Format : AVI
    Format/Info : Audio Video Interleave
    File size : 2.04 GiB
    Duration : 2h 29mn
    Overall bit rate : 1 952 Kbps
    Writing application : VirtualDubMod 1.5.10.2 (build 2540/release)
    Writing library : VirtualDubMod build 2540/release
  Video #0
    ID : 0
    Format : MPEG-4 Visual
    Format profile : Advanced Simple@L5
    Format settings, BVOP : 2
    Format settings, QPel : No
    Format settings, GMC : No warppoints
    Format settings, Matrix : Default (MPEG)
    Codec ID : XVID
    Codec ID/Hint : XviD
    Duration : 2h 29mn
    Bit rate : 1 687 Kbps
    Width : 720 pixels
    Height : 304 pixels
    Display aspect ratio : 2.35:1
    Frame rate : 23.976 fps
    Color space : YUV
    Chroma subsampling : 4:2:0
    Bit depth : 8 bits
    Scan type : Progressive
    Compression mode : Lossy
    Bits/(Pixel*Frame) : 0.322
    Stream size : 1.76 GiB (86%)
    Writing library : XviD 1.2.1 (UTC 2008-12-04)
  Audio #1
    ID : 1
    Format : AC-3
    Format/Info : Audio Coding 3
    Mode extension : CM (complete main)
    Format settings, Endianness : Big
    Codec ID : 2000
    Duration : 2h 28mn
    Bit rate mode : Constant
    Bit rate : 256 Kbps
    Channel(s) : 2 channels
    Channel positions : Front: L R
    Sampling rate : 48.0 KHz
    Bit depth : 16 bits
    Compression mode : Lossy
    Stream size : 273 MiB (13%)
    Alignment : Split accross interleaves
    Interleave, duration : 42 ms (1.00 video frame)
    Interleave, preload duration : 500 ms








реклама партнёра


Вернуться к началу
 Профиль  
 
   Похожие торренты   Автор   Торрент   Размер 
В этой теме нет новых непрочитанных сообщений. Исчезнувшая / Gone Girl [триллер, драма, детектив, 2014] WEB-DL 720p, dub [чистый звук]

Dracon

31 | 2

5.09 ГБ

В этой теме нет новых непрочитанных сообщений. Исчезнувшая / Gone Girl [триллер, драма, детектив, 2014] WEB-DLRip, dub [Звук с TS]

Dracon

485 | 4

2.8 ГБ

В этой теме нет новых непрочитанных сообщений. Исчезнувшая / Gone Girl [триллер, драма, детектив, 2014] WEB-DL 1080p, dub [Звук с TS]

Dracon

96 | 3

4.86 ГБ

В этой теме нет новых непрочитанных сообщений. Исчезнувшая / Gone Girl [триллер, драма, детектив, 2014] WEB-DLRip, avo

Dracon

5 | 2

2.04 ГБ

В этой теме нет новых непрочитанных сообщений. Исчезнувшая  / Gone Girl [триллер, драма, детектив, 2014] WEB-DLRip, Dub [iTunes]

Dracon

5 | 8

2.04 ГБ

В этой теме нет новых непрочитанных сообщений. Исчезнувшая / Gone Girl [триллер, драма, детектив, 2014] WEB-DLRip, Dub [iTunes]

Dracon

10 | 2

1.46 ГБ

В этой теме нет новых непрочитанных сообщений. Исчезнувшая / Gone Girl [триллер, драма, детектив, 2014] Blu-Ray [EUR], Dub+Sub [лицензия]

Dracon

6 | 4

44.3 ГБ


СообщениеДобавлено: 14 дек 2014, 20:18 

Не в сети
Релизёр
Аватара пользователя
Дата регистрации:
02 апр 2011, 13:05
Возраст: 34
Спасибо: 55 / 32
Сообщения: 168
Откуда: Калининград
Ссылки кинопоиск и IMDB ведут на сериал Марко Поло))

_________________
Логика может привести Вас от пункта А к пункту Б, а воображение — куда угодно. © Эйнштейн


Вернуться к началу
 Профиль Отправить личное сообщение  
 

СообщениеДобавлено: 16 дек 2014, 16:28 

Не в сети
Дата регистрации:
22 янв 2014, 15:36
Спасибо: 0 / 3
Сообщения: 18
не качает. почему???


Вернуться к началу
 Профиль Отправить личное сообщение  
 

СообщениеДобавлено: 16 дек 2014, 17:08 

Не в сети
Зам. Админа
Аватара пользователя
Дата регистрации:
02 дек 2010, 12:39
Спасибо: 12461 / 214
Сообщения: 27968
GarpiyaW писал(а):
не качает. почему???

В твоём торренте проблемка, как решить-




























Вернуться к началу
 Профиль  
 
Начать новую тему Ответить на тему  [ Сообщений: 4 ] 




Для Мосгорсуда, Роскомнадзора и рекламодателей:: mosgorsud-torrent[собачка]yandex.ru