Торрент файл
скачать торрент магнет ссылка Добавлен: 12 дек 2014, 21:13
Размер: 1.52 ГБ
Сидеров: 194
Личеров: 18
Статус: (salma3)
Автор

СообщениеДобавлено: 12 дек 2014, 21:13 

В сети
Супермодератор
Аватара пользователя
Дата регистрации:
15 фев 2012, 16:44
Возраст: 27
Спасибо: 5136 / 2089
Сообщения: 17409
Записи Левенджера / The Levenger Tapes

Год выхода: 2013
Жанр: Ужасы, триллер
Режиссер: Марк Эдвин Робинсон

В ролях: Джоанна Э. Брэдди, Лили Мирожник, Морган Крантц, Крис Малки, Аарон Дженнингс Хартнелл, Мария Олсен, Джефф Прайд, Джон Розенфельд, Кемден Сингер, Том Вирту

О фильме:
Детективы смотрят найденную на месте преступления видеозапись, которая, как они надеются, поможет им определить местонахождение трех пропавших без вести студентов. С каждым просмотренным кадром пленки им становится все более и более тревожно за их судьбу: на записи студенты находят окровавленное платье 8-летней девочки, поисками которой они и занялись…



Страна: США
Студия: Castlight Pictures
Продолжительность: 01:28:55
Перевод: Профессиональный [многоголосый]

Файл
Качество: HDTVRip
Формат файла: AVI
Видео кодек: XviD
Аудио кодек: AC3
Видео: 1991 Кбит/с, 720x400, 25.000 кадр/с
Звук: Русский (АС3, 6 ch, 448 Кбит/с)

Семпл

Общее
Полное имя : Zapisi.Levendzhera.2013.HDTVRip.MediaClub.avi
Формат : AVI
Формат/Информация : Audio Video Interleave
Размер файла : 1,52 Гбайт
Продолжительность : 1 ч. 28 м.
Общий поток : 2448 Кбит/сек
Название фильма : MediaClub
Программа кодирования : VirtualDubMod 1.5.10.2 (build 2540/release)
Библиотека кодирования : VirtualDubMod build 2540/release

Видео
Идентификатор : 0
Формат : MPEG-4 Visual
Профиль формата : Advanced Simple@L5
Параметр BVOP формата : 2
Параметр QPel формата : Нет
Параметр GMC формата : Без точки перехода
Параметр матрицы формата : Default (MPEG)
Идентификатор кодека : XVID
Идентификатор кодека/Подсказка : XviD
Продолжительность : 1 ч. 28 м.
Битрейт : 1991 Кбит/сек
Ширина : 720 пикселей
Высота : 400 пикселей
Соотношение сторон : 16:9
Частота кадров : 25,000 кадров/сек
Цветовое пространство : YUV
Субдискретизация насыщенности : 4:2:0
Битовая глубина : 8 бит
Тип развёртки : Прогрессивная
Метод сжатия : С потерями
Бит/(Пиксели*Кадры) : 0.276
Размер потока : 1,24 Гбайт (81%)
Библиотека кодирования : XviD 65

Аудио
Идентификатор : 1
Формат : AC-3
Формат/Информация : Audio Coding 3
Расширение режима : CM (complete main)
Параметр Endianness формата : Big
Идентификатор кодека : 2000
Продолжительность : 1 ч. 28 м.
Вид битрейта : Постоянный
Битрейт : 448 Кбит/сек
Каналы : 6 каналов
Расположение каналов : Front: L C R, Side: L R, LFE
Частота : 48,0 КГц
Битовая глубина : 16 бит
Метод сжатия : С потерями
Размер потока : 285 Мбайт (18%)
Выравнивание : Разделение по промежуткам
Продолжительность промежутка : 40 мс. (1,00 видеокадр)
Время предзагрузки промежутка : 500 мс.


Релиз от:


_________________



реклама партнёра


Вернуться к началу
 Профиль Отправить личное сообщение  
 
   Похожие торренты   Автор   Торрент   Размер 
В этой теме нет новых непрочитанных сообщений. Записи Левенджера / The Levenger Tapes [Ужасы, триллер, 2013] HDTV 1080i, Mvo

salma3

103 | 16

4.77 ГБ

В этой теме нет новых непрочитанных сообщений. Ватиканские записи / The Vatican Tapes (Марк Невелдайн) [ужасы, триллер, 2015] HDRip-AVC, Dub [iTunes]

Dracon

27 | 1

1.64 ГБ

В этой теме нет новых непрочитанных сообщений. Ватиканские записи / The Vatican Tapes (Марк Невелдайн) [ужасы, триллер, 2015] BDRip 1080p, Dub [iTunes]

Dracon

66 | 2

6.79 ГБ

В этой теме нет новых непрочитанных сообщений. Маленькие смерти 2: Скверные ленты / La Petite Mort 2: Nasty Tapes [ужасы, триллер, 2014] BDRip, avo

Dracon

246 | 8

561.28 МБ

В этой теме нет новых непрочитанных сообщений. Маленькие смерти 2: Скверные ленты / La Petite Mort 2: Nasty Tapes [ужасы, триллер, 2014] BDRip 720p, avo

Dracon

7 | 6

4.52 ГБ

В этой теме нет новых непрочитанных сообщений. Маленькая смерть 2: Скверные ленты / La Petite Mort 2: Nasty Tapes (Марсель Вальц) [ужасы, триллер, 2014] HDRip, avo

Dracon

2 | 2

1.37 ГБ

В этой теме нет новых непрочитанных сообщений. Gama Bomb - The Terror Tapes [2013, Thrash Metal, MP3]

PriZraK

0 | 1

87.78 МБ


Начать новую тему Ответить на тему  [ 1 сообщение ] 




Для Мосгорсуда, Роскомнадзора и рекламодателей:: mosgorsud-torrent[собачка]yandex.ru