Торрент файл
скачать торрент магнет ссылка Добавлен: 09 дек 2014, 21:55
Размер: 1.77 ГБ
Сидеров: 189
Личеров: 5
Статус: (Dracon)
Автор

СообщениеДобавлено: 09 дек 2014, 21:55 

Не в сети
Зам. Админа
Аватара пользователя
Дата регистрации:
02 дек 2010, 12:39
Спасибо: 12460 / 214
Сообщения: 27968
Год выпуска: 2014
Жанр: Фантастика, боевик, триллер, детектив
Режиссер: Уэс Болл
В ролях: Дилан О’Брайэн, Кая Скоделарио, Уилл Поултер, Томас Сэнгстер, Патришия Кларксон, Ки Хонг Ли, Амл Амин, Блейк Купер, Крис Шеффилд, Карл Грин
Выпущено: США, 20th Century Fox, Gotham Group, Temple Hill Entertainment

О фильме: Главный герой — подросток Томас, который просыпается в лифте, но ничего не помнит, кроме своего имени. Он оказывается среди 60 подростков, научившихся выживать в замкнутом пространстве. Раз в 30 дней прибывает новый мальчик. Группа ребят проживает в «Приюте» уже два года. Они кормятся тем, что удается вырастить на земле, и пытаются найти выход из лабиринта, окружающего их место жительства. Но однажды появляется девочка в состоянии комы…



Качество: DVDRip (AVC)
Видео: MPEG-4 AVC, 1497 Кбит/с, 720x426@1024x426, 25 кадр/с
Аудио: Русский (AC3, 6 ch, 384 Кбит/с), английский (AC3, 6 ch, 448 Кбит/с)
Продолжительность: 01:48:51
Перевод: Дублированный (лицензия)
Субтитры: Русские, английские
General
Unique ID : 183047139266196606497861922474443813302 (0x89B598BFACA3DFAA81A7F5C88D0A31B6)
Complete name : C:UsersNataliaDesktopNatanewrip2014.12Begyshii.V.Labirinte.2014.D.DVDRip.AVC.ExKinoRay.mkv
Format : Matroska
Format version : Version 2
File size : 1.77 GiB
Duration : 1h 48mn
Overall bit rate : 2 331 Kbps
Movie name : Begyshii V Labirinte 2014 from ExKinoRay
Encoded date : UTC 2014-12-09 15:54:22
Writing application : mkvmerge v4.9.1 ('Ich will') built on Jul 11 2011 23:53:15
Writing library : libebml v1.2.1 + libmatroska v1.1.1

Video
ID : 1
Format : AVC
Format/Info : Advanced Video Codec
Format profile : High@L4.1
Format settings, CABAC : Yes
Format settings, ReFrames : 9 frames
Codec ID : V_MPEG4/ISO/AVC
Duration : 1h 48mn
Bit rate : 1 497 Kbps
Width : 720 pixels
Height : 426 pixels
Display aspect ratio : 2.40:1
Original display aspect ratio : 2.40:1
Frame rate mode : Constant
Frame rate : 25.000 fps
Color space : YUV
Chroma subsampling : 4:2:0
Bit depth : 8 bits
Scan type : Progressive
Bits/(Pixel*Frame) : 0.195
Stream size : 1.10 GiB (62%)
Title : Enigma
Writing library : x264 core 133 r2334 a3ac64b
Encoding settings : cabac=1 / ref=9 / deblock=1:-2:-2 / analyse=0x3:0x113 / me=umh / subme=11 / psy=1 / psy_rd=1.00:0.10 / mixed_ref=1 / me_range=32 / chroma_me=1 / trellis=2 / 8x8dct=1 / cqm=0 / deadzone=21,11 / fast_pskip=0 / chroma_qp_offset=-3 / threads=12 / lookahead_threads=2 / sliced_threads=0 / nr=0 / decimate=0 / interlaced=0 / bluray_compat=0 / constrained_intra=0 / bframes=9 / b_pyramid=2 / b_adapt=2 / b_bias=0 / direct=3 / weightb=1 / open_gop=0 / weightp=2 / keyint=250 / keyint_min=25 / scenecut=40 / intra_refresh=0 / rc=2pass / mbtree=0 / bitrate=1497 / ratetol=1.0 / qcomp=0.60 / qpmin=0 / qpmax=69 / qpstep=4 / cplxblur=20.0 / qblur=0.5 / ip_ratio=1.40 / pb_ratio=1.30 / aq=1:1.00
Default : Yes
Forced : No
Color primaries : BT.601 PAL
Transfer characteristics : BT.470 System B, BT.470 System G
Matrix coefficients : BT.601

Audio #1
ID : 2
Format : AC-3
Format/Info : Audio Coding 3
Mode extension : CM (complete main)
Format settings, Endianness : Big
Codec ID : A_AC3
Duration : 1h 48mn
Bit rate mode : Constant
Bit rate : 384 Kbps
Channel(s) : 6 channels
Channel positions : Front: L C R, Side: L R, LFE
Sampling rate : 48.0 KHz
Bit depth : 16 bits
Compression mode : Lossy
Stream size : 299 MiB (16%)
Title : DUB
Language : Russian
Default : Yes
Forced : No

Audio #2
ID : 3
Format : AC-3
Format/Info : Audio Coding 3
Mode extension : CM (complete main)
Format settings, Endianness : Big
Codec ID : A_AC3
Duration : 1h 48mn
Bit rate mode : Constant
Bit rate : 448 Kbps
Channel(s) : 6 channels
Channel positions : Front: L C R, Side: L R, LFE
Sampling rate : 48.0 KHz
Bit depth : 16 bits
Compression mode : Lossy
Stream size : 349 MiB (19%)
Language : English
Default : No
Forced : No

Text #1
ID : 4
Format : UTF-8
Codec ID : S_TEXT/UTF8
Codec ID/Info : UTF-8 Plain Text
Language : Russian
Default : No
Forced : No

Text #2
ID : 5
Format : UTF-8
Codec ID : S_TEXT/UTF8
Codec ID/Info : UTF-8 Plain Text
Language : English
Default : No
Forced : No

Menu
00:00:00.000 : :Chapter 01
00:03:05.800 : :Chapter 02
00:06:59.160 : :Chapter 03
00:10:00.680 : :Chapter 04
00:13:41.560 : :Chapter 05
00:16:39.640 : :Chapter 06
00:18:46.320 : :Chapter 07
00:22:24.680 : :Chapter 08
00:23:36.960 : :Chapter 09
00:27:05.000 : :Chapter 10
00:30:09.800 : :Chapter 11
00:32:49.040 : :Chapter 12
00:35:41.440 : :Chapter 13
00:39:20.800 : :Chapter 14
00:40:33.760 : :Chapter 15
00:43:55.960 : :Chapter 16
00:46:33.600 : :Chapter 17
00:50:48.680 : :Chapter 18
00:53:06.760 : :Chapter 19
00:55:37.360 : :Chapter 20
00:57:05.920 : :Chapter 21
00:59:04.960 : :Chapter 22
01:02:34.640 : :Chapter 23
01:05:54.600 : :Chapter 24
01:09:17.760 : :Chapter 25
01:11:21.080 : :Chapter 26
01:17:11.120 : :Chapter 27
01:19:04.120 : :Chapter 28
01:22:08.760 : :Chapter 29
01:26:02.200 : :Chapter 30
01:29:59.840 : :Chapter 31
01:32:46.600 : :Chapter 32
01:35:29.800 : :Chapter 33
01:38:53.280 : :Chapter 34
01:40:50.880 : :Chapter 35
01:41:52.680 : :Chapter 36
01:48:50.000 : :Chapter 37








реклама партнёра


Вернуться к началу
 Профиль  
 
   Похожие торренты   Автор   Торрент   Размер 
В этой теме нет новых непрочитанных сообщений. Бегущий в лабиринте / The Maze Runner [Фантастика, Боевик, Триллер, Детектив, 2014] BDRemux 1080p, Dub+Sub [Лицензия]

Dracon

173 | 18

24.19 ГБ

В этой теме нет новых непрочитанных сообщений. Бегущий в лабиринте / The Maze Runner [Фантастика, Боевик, Триллер, Детектив, 2014] BDRip 1080p, Dub+Sub [Лицензия]

Dracon

487 | 28

11.85 ГБ

В этой теме нет новых непрочитанных сообщений. Бегущий в лабиринте / The Maze Runner [Фантастика, Боевик, Триллер, Детектив, 2014] BDRip 720p, Dub+Sub [Лицензия]

Dracon

5247 | 172

2.46 ГБ

В этой теме нет новых непрочитанных сообщений. Бегущий в Лабиринте / The Maze Runner [Фантастика, Боевик, Триллер, Детектив, 2014] BDRip-AVC, Dub+Sub [iTunes]

Dracon

317 | 3

2.41 ГБ

В этой теме нет новых непрочитанных сообщений. Бегущий в лабиринте / The Maze Runner [Фантастика, Боевик, Триллер, Детектив, 2014] HDRip, Dub [iTunes]

Dracon

49 | 2

2.05 ГБ

В этой теме нет новых непрочитанных сообщений. Бегущий в лабиринте / The Maze Runner [Фантастика, Боевик, Триллер, Детектив, 2014] HDRip, Dub [iTunes]

Dracon

20 | 2

1.46 ГБ

В этой теме нет новых непрочитанных сообщений. Бегущий в лабиринте / The Maze Runner [Фантастика, Боевик, Триллер, Детектив, 2014] BDRip 1080p, Dub [iTunes]

Dracon

30 | 2

8.02 ГБ


Начать новую тему Ответить на тему  [ 1 сообщение ] 




Для Мосгорсуда, Роскомнадзора и рекламодателей:: mosgorsud-torrent[собачка]yandex.ru