Торрент файл
скачать торрент магнет ссылка Добавлен: 09 дек 2014, 10:36
Размер: 1.46 ГБ
Сидеров: 52
Личеров: 5
Статус: (salma3)
Автор

СообщениеДобавлено: 09 дек 2014, 10:36 

Не в сети
Супермодератор
Аватара пользователя
Дата регистрации:
15 фев 2012, 16:44
Возраст: 27
Спасибо: 5143 / 2090
Сообщения: 17478
Сидящий Бык / Sitting Bull

Год выпуска: 1954
Жанр: Вестерн, драма
Режиссер: Сидней Сэлкоу

В ролях: Дэйл Робертсон, Мэри Мерфи, Дж. Кэролл Нейш, Джон Лител, Джоэль Флюллен, Айрон Айс Коуди, Джон Хэмилтон, Дуглас Кеннеди, Уильям Таннен, Уильям Хоппер

О фильме:
Сидящий Бык (родился примерно в 1831 — убит 15 декабря 1890) — вождь индейских племён хункпапа-сиу. Его имя на его родном языке лакота звучит как Татанка Ийотаке. Сидящий Бык возглавлял племена индейцев, противившихся переселению в резервации. 25 июня 1876 объединённые войска индейцев сиу и чейенов под предводительством Сидящего Быка в битве при Литтл-Бигхорн разбили кавалерию генерала Кастера. Это была одна из самых значительных побед индейцев в войне за свою территорию...



Выпущено: США, Мексика, W.R. Frank Productions
Продолжительность: 01:41:33
Перевод: Профессиональный (двухголосный) [НТВ +]

Файл
Качество: HDTVRip
Формат файла: AVI
Видео кодек: XviD
Аудио кодек: AC3
Видео: XviD, 1861 Кбит/с, 720x400
Аудио: Русский, AC3, 2 ch, 192 Кбит/с

Спасибо за предоставленный исходник 1234plz

General
Complete name : G:Sitting Bull 1954 HDTVRip 1.46.avi
Format : AVI
Format/Info : Audio Video Interleave
File size : 1.46 GiB
Duration : 1h 41mn
Overall bit rate : 2 063 Kbps
Writing application : VirtualDubModRus 1.5.10.2 (build 2542/release)
Writing library : VirtualDubMod build 2542/release

Video
ID : 0
Format : MPEG-4 Visual
Format profile : Advanced Simple@L5
Format settings, BVOP : 2
Format settings, QPel : No
Format settings, GMC : No warppoints
Format settings, Matrix : Default (H.263)
Codec ID : XVID
Codec ID/Hint : XviD
Duration : 1h 41mn
Bit rate : 1 862 Kbps
Width : 720 pixels
Height : 400 pixels
Display aspect ratio : 16:9
Frame rate : 25.000 fps
Color space : YUV
Chroma subsampling : 4:2:0
Bit depth : 8 bits
Scan type : Progressive
Compression mode : Lossy
Bits/(Pixel*Frame) : 0.259
Stream size : 1.32 GiB (90%)
Writing library : XviD 57

Audio
ID : 1
Format : AC-3
Format/Info : Audio Coding 3
Mode extension : CM (complete main)
Format settings, Endianness : Big
Codec ID : 2000
Duration : 1h 41mn
Bit rate mode : Constant
Bit rate : 192 Kbps
Channel(s) : 2 channels
Channel positions : Front: L R
Sampling rate : 48.0 KHz
Bit depth : 16 bits
Compression mode : Lossy
Stream size : 139 MiB (9%)
Alignment : Split accross interleaves
Interleave, duration : 40 ms (1.00 video frame)
Interleave, preload duration : 500 ms







Релиз от:


_________________



реклама партнёра


Вернуться к началу
 Профиль Отправить личное сообщение  
 
   Похожие торренты   Автор   Торрент   Размер 
В этой теме нет новых непрочитанных сообщений. Сидящий Бык / Sitting Bull [Вестерн, драма, 1954] HDTV 1080i, Dvo [НТВ +]

salma3

16 | 9

6.49 ГБ

В этой теме нет новых непрочитанных сообщений. Булл / Bull [01х01-01 из 13] [драма, 2016] WEBRip, Dvo [Sunshine Studio]

salma3

66 | 9

371.8 МБ

В этой теме нет новых непрочитанных сообщений. Дикий Билл / Wild Bill [Вестерн, Драма, Боевик, 1995] HDTVRip, Dvo+Avo

salma3

64 | 2

1.46 ГБ

В этой теме нет новых непрочитанных сообщений. Tyla J. Pallas (The Dogs D'Amour) - Devil's Supper [Electric Sitting] (Deluxe Edition) [2013, Rock, MP3]

PriZraK

0 | 1

122.71 МБ

В этой теме нет новых непрочитанных сообщений. Земля волков / Tierra de lobos [s01] [вестерн, драма, мелодрама, детектив, 2010] HDTVRip, Mvo

salma3

47 | 12

9.65 ГБ

В этой теме нет новых непрочитанных сообщений. [StrandedTeens.com / Mofos.com] Mia Scarlett (Babe Says Thanks With A BJ / 02.06.15) [2015 г., Outdoors, All Sex, Deep Throat, Face Sitting, Cowgirl, Reverse Cowgirl, Missionary, SiteRip 480p]1006kbps

friizze

0 | 2

262.63 МБ

В этой теме нет новых непрочитанных сообщений. Знак язычника / Sign of the Pagan [драма, история, 1954] DVDRip, Avo

salma3

5 | 2

923.27 МБ


Начать новую тему Ответить на тему  [ 1 сообщение ] 




Для Мосгорсуда, Роскомнадзора и рекламодателей:: mosgorsud-torrent[собачка]yandex.ru