Торрент файл
скачать торрент магнет ссылка Добавлен: 09 дек 2014, 10:36
Размер: 1.46 ГБ
Сидеров: 52
Личеров: 5
Статус: (salma3)
Автор

СообщениеДобавлено: 09 дек 2014, 10:36 

Не в сети
Супермодератор
Аватара пользователя
Дата регистрации:
15 фев 2012, 16:44
Возраст: 28
Спасибо: 6642 / 2146
Сообщения: 45692
Сидящий Бык / Sitting Bull

Год выпуска: 1954
Жанр: Вестерн, драма
Режиссер: Сидней Сэлкоу

В ролях: Дэйл Робертсон, Мэри Мерфи, Дж. Кэролл Нейш, Джон Лител, Джоэль Флюллен, Айрон Айс Коуди, Джон Хэмилтон, Дуглас Кеннеди, Уильям Таннен, Уильям Хоппер

О фильме:
Сидящий Бык (родился примерно в 1831 — убит 15 декабря 1890) — вождь индейских племён хункпапа-сиу. Его имя на его родном языке лакота звучит как Татанка Ийотаке. Сидящий Бык возглавлял племена индейцев, противившихся переселению в резервации. 25 июня 1876 объединённые войска индейцев сиу и чейенов под предводительством Сидящего Быка в битве при Литтл-Бигхорн разбили кавалерию генерала Кастера. Это была одна из самых значительных побед индейцев в войне за свою территорию...



Выпущено: США, Мексика, W.R. Frank Productions
Продолжительность: 01:41:33
Перевод: Профессиональный (двухголосный) [НТВ +]

Файл
Качество: HDTVRip
Формат файла: AVI
Видео кодек: XviD
Аудио кодек: AC3
Видео: XviD, 1861 Кбит/с, 720x400
Аудио: Русский, AC3, 2 ch, 192 Кбит/с

Спасибо за предоставленный исходник 1234plz

General
Complete name : G:Sitting Bull 1954 HDTVRip 1.46.avi
Format : AVI
Format/Info : Audio Video Interleave
File size : 1.46 GiB
Duration : 1h 41mn
Overall bit rate : 2 063 Kbps
Writing application : VirtualDubModRus 1.5.10.2 (build 2542/release)
Writing library : VirtualDubMod build 2542/release

Video
ID : 0
Format : MPEG-4 Visual
Format profile : Advanced Simple@L5
Format settings, BVOP : 2
Format settings, QPel : No
Format settings, GMC : No warppoints
Format settings, Matrix : Default (H.263)
Codec ID : XVID
Codec ID/Hint : XviD
Duration : 1h 41mn
Bit rate : 1 862 Kbps
Width : 720 pixels
Height : 400 pixels
Display aspect ratio : 16:9
Frame rate : 25.000 fps
Color space : YUV
Chroma subsampling : 4:2:0
Bit depth : 8 bits
Scan type : Progressive
Compression mode : Lossy
Bits/(Pixel*Frame) : 0.259
Stream size : 1.32 GiB (90%)
Writing library : XviD 57

Audio
ID : 1
Format : AC-3
Format/Info : Audio Coding 3
Mode extension : CM (complete main)
Format settings, Endianness : Big
Codec ID : 2000
Duration : 1h 41mn
Bit rate mode : Constant
Bit rate : 192 Kbps
Channel(s) : 2 channels
Channel positions : Front: L R
Sampling rate : 48.0 KHz
Bit depth : 16 bits
Compression mode : Lossy
Stream size : 139 MiB (9%)
Alignment : Split accross interleaves
Interleave, duration : 40 ms (1.00 video frame)
Interleave, preload duration : 500 ms







Релиз от:


_________________
Проголосуй за трекер Открытый торрент трекер - RUS-MEDIA.ORG

Проголосуй Открытый торрент трекер - RUS-MEDIA.ORG



реклама партнёра


Вернуться к началу
 Профиль Отправить личное сообщение  
 
   Похожие торренты   Автор   Торрент   Размер 
В этой теме нет новых непрочитанных сообщений. [CzechVRFetish.com / CzechVR.com] Francys Belle & Katrin Tequila (Czech VR Fetish 082 - Double Face Sitting) [2017 г., Lesbians, Face sitting, Oculus, Virtual Reality, VR]

salma3

4 | 1

4.35 ГБ

В этой теме нет новых непрочитанных сообщений. [CzechVRFetish.com] Lucia Fernandez & Rossella Visconti (Czech VR Fetish 087 - Double Face-Sitting) [2017 г., Lesbians, Big breasts, Face sitting, Gaping, Gear VR 3D, Virtual Reality, VR]

salma3

5 | 2

2.91 ГБ

В этой теме нет новых непрочитанных сообщений. [CzechVRFetish.com] Lucia Fernandez & Rossella Visconti (Czech VR Fetish 087 - Double Face-Sitting) [2017 г., Lesbians, Big breasts, Face sitting, Gaping, Oculus VR 3D, Virtual Reality, VR]

salma3

4 | 1

4.34 ГБ

В этой теме нет новых непрочитанных сообщений. Мистер Булл / Bull [S01] [драма, 2016] WEB-DLRip, Mvo [FOX]

salma3

0 | 0

9.84 ГБ

В этой теме нет новых непрочитанных сообщений. Булл / Bull [S01] [драма, 2016] WEBRip, Dvo [Sunshine Studio]

salma3

0 | 0

6.23 ГБ

В этой теме нет новых непрочитанных сообщений. Бык из Бронкса / The Bronx Bull [драма, биография, спорт, 2016] DVDRip, Mvo

salma3

357 | 167

1.37 ГБ

В этой теме нет новых непрочитанных сообщений. Дикий Билл / Wild Bill [Вестерн, Драма, Боевик, 1995] HDTVRip, Dvo+Avo

salma3

64 | 2

1.46 ГБ


Начать новую тему Ответить на тему  [ 1 сообщение ] 




Для Мосгорсуда, Роскомнадзора и рекламодателей:: mosgorsud-torrent[собачка]yandex.ru