Торрент файл
скачать торрент магнет ссылка Добавлен: 08 дек 2014, 21:57
Размер: 1.46 ГБ
Сидеров: 161
Личеров: 8
Статус: (salma3)
Автор

СообщениеДобавлено: 08 дек 2014, 21:57 

Не в сети
Супермодератор
Аватара пользователя
Дата регистрации:
15 фев 2012, 16:44
Возраст: 27
Спасибо: 5143 / 2090
Сообщения: 17478
Смертельная битва / Mortal Kombat

Год выхода: 1995
Жанр: фантастика, фэнтези, боевик
Режиссер: Пол У. С. Андерсон

В ролях: Робин Шоу, Линден Эшби, Бриджит Уилсон, Кристофер Ламберт, Кэри-Хироюки Тагава, Талиса Сото, Тревор Годдар, Крис Касамасса, Франсуа Пети, Кит Кук

Описание: Несколько столетий назад Шанг Тсунг — маг из потустороннего мира захватил в свои руки древний воинский турнир. Его цель — ввергнуть наш мир в хаос. Чтобы спасти человечество от гибели, троим воинам предстоит битва… смертельная битва с силами мрака.



Страна: США
Продолжительность: 01:41:26
Перевод: Профессиональный многоголосый закадровый [CP-Digital]

Файл
Качество: BDRip
Формат файла: AVI
Видео кодек: XviD
Аудио кодек: AC3
Видео: 704x400 (1.76:1), 23.976 fps, XviD build 73 ~1602 kbps avg, 0.24 bit/pixel
Звук: 48 kHz, AC3 Dolby Digital, 3/2 (L,C,R,l,r) + LFE ch, ~448.00 kbps avg

семпл

General
Complete name : Smertelnaya_bitva_1995_BDRip_by_Dalemake.avi
Format : AVI
Format/Info : Audio Video Interleave
File size : 1.46 GiB
Duration : 1h 41mn
Overall bit rate : 2 060 Kbps
Writing application : VirtualDubMod 1.5.10.3 | http://www.virtualdub-fr.org || (build 2550/release)
Writing library : VirtualDubMod build 2550/release

Video
ID : 0
Format : MPEG-4 Visual
Format profile : Advanced Simple@L5
Format settings, BVOP : 1
Format settings, QPel : No
Format settings, GMC : No warppoints
Format settings, Matrix : Custom
Codec ID : XVID
Codec ID/Hint : XviD
Duration : 1h 41mn
Bit rate : 1 602 Kbps
Width : 704 pixels
Height : 400 pixels
Display aspect ratio : 16:9
Frame rate : 23.976 fps
Color space : YUV
Chroma subsampling : 4:2:0
Bit depth : 8 bits
Scan type : Progressive
Compression mode : Lossy
Bits/(Pixel*Frame) : 0.237
Stream size : 1.14 GiB (78%)
Writing library : XviD 73

Audio
ID : 1
Format : AC-3
Format/Info : Audio Coding 3
Mode extension : CM (complete main)
Format settings, Endianness : Big
Codec ID : 2000
Duration : 1h 41mn
Bit rate mode : Constant
Bit rate : 448 Kbps
Channel(s) : 6 channels
Channel positions : Front: L C R, Side: L R, LFE
Sampling rate : 48.0 KHz
Bit depth : 16 bits
Compression mode : Lossy
Stream size : 325 MiB (22%)
Alignment : Split accross interleaves
Interleave, duration : 42 ms (1.00 video frame)
Interleave, preload duration : 500 ms


_________________



реклама партнёра


Вернуться к началу
 Профиль Отправить личное сообщение  
 
   Похожие торренты   Автор   Торрент   Размер 
В этой теме нет новых непрочитанных сообщений. Смертельная битва. Дилогия / Mortal Kombat. Dilogy [фантастика, фэнтези, боевик, 1995-1997] BDRip 720p, Mvo+Dvo+Avo+Sub

salma3

87 | 11

11.81 ГБ

В этой теме нет новых непрочитанных сообщений. Смертельная битва. Дилогия / Mortal Kombat. Dilogy [фантастика, фэнтези, боевик, триллер, приключения, 1995, 1997] BDRip-AVC, Mvo

salma3

85 | 16

2.92 ГБ

В этой теме нет новых непрочитанных сообщений. Смертельная битва 2: Истребление / Mortal Kombat: Annihilation [фантастика, фэнтези, боевик, 1997] BDRip, Mvo

salma3

149 | 7

1.46 ГБ

В этой теме нет новых непрочитанных сообщений. Ultimate Mortal Kombat 3 v1.0 [Hack]

Xboxer_83

0 | 4

6.01 МБ

В этой теме нет новых непрочитанных сообщений. Mortal Kombat X [Action, Fighting, 2015] [Лицензия]

Марик

145 | 35

31.33 ГБ

В этой теме нет новых непрочитанных сообщений. Mortal Kombat X [Update 15] [Action, Fighting, 2015] [Steam-Rip]

Dracon

365 | 46

32.8 ГБ

В этой теме нет новых непрочитанных сообщений. Mortal Kombat Komplete Edition [Fighting, 2013] [RePack]

Nickolas3435

332 | 16

7.4 ГБ


Начать новую тему Ответить на тему  [ 1 сообщение ] 




Для Мосгорсуда, Роскомнадзора и рекламодателей:: mosgorsud-torrent[собачка]yandex.ru