Торрент файл
скачать торрент магнет ссылка Добавлен: 08 дек 2014, 21:54
Размер: 1.46 ГБ
Сидеров: 149
Личеров: 7
Статус: (salma3)
Автор

СообщениеДобавлено: 08 дек 2014, 21:54 

В сети
Супермодератор
Аватара пользователя
Дата регистрации:
15 фев 2012, 16:44
Возраст: 27
Спасибо: 5121 / 2089
Сообщения: 17281
Смертельная битва 2: Истребление / Mortal Kombat: Annihilation

Год выхода: 1997
Жанр: фантастика, фэнтези, боевик
Режиссер: Джон Р. Леонетти

В ролях: Робин Шоу, Талиса Сото, Джеймс Римар, Сандра Хесс, Линн ’Красный’ Уильямс, Брайан Томпсон, Рейнер Шёне, Мусетта Вандер, Ирина Пантаева, Дерон Макби

Описание:
Император Внеземелья Шао Кан прибывает на Землю, чтобы лично предупредить ее жителей о своих намерениях: уничтожить мир земной, и сделать все это за семь библейских дней. В числе его подручных — роботы, обладающие инстинктами и приемами ниндзя, четырехрукая дева Шива и звероподобный человек Мотарро. Но им противостоят герои Земли во главе с самим лордом Рейденом… Ожидается фейерверк единоборств!



Страна: США
Продолжительность: 01:35:44
Перевод: Профессиональный многоголосый закадровый [CP-Digital]

Файл
Качество: BDRip
Формат файла: AVI
Видео кодек: XviD
Аудио кодек: AC3
Видео: 704x400 (1.76:1), 23.976 fps, Xvid build 73 ~1720 kbps avg, 0.25 bit/pixel
Звук: 48 kHz, AC3 Dolby Digital, 3/2 (L,C,R,l,r) + LFE ch, ~448.00 kbps avg

семпл

General
Complete name : Smertelnaya_bitva_2_1997_BDRip_by_Dalemake.avi
Format : AVI
Format/Info : Audio Video Interleave
File size : 1.46 GiB
Duration : 1h 35mn
Overall bit rate : 2 178 Kbps
Writing application : VirtualDubMod 1.5.10.3 | http://www.virtualdub-fr.org || (build 2550/release)
Writing library : VirtualDubMod build 2550/release

Video
ID : 0
Format : MPEG-4 Visual
Format profile : Advanced Simple@L5
Format settings, BVOP : 1
Format settings, QPel : No
Format settings, GMC : No warppoints
Format settings, Matrix : Custom
Codec ID : XVID
Codec ID/Hint : XviD
Duration : 1h 35mn
Bit rate : 1 720 Kbps
Width : 704 pixels
Height : 400 pixels
Display aspect ratio : 16:9
Frame rate : 23.976 fps
Color space : YUV
Chroma subsampling : 4:2:0
Bit depth : 8 bits
Scan type : Progressive
Compression mode : Lossy
Bits/(Pixel*Frame) : 0.255
Stream size : 1.15 GiB (79%)
Writing library : XviD 73

Audio
ID : 1
Format : AC-3
Format/Info : Audio Coding 3
Mode extension : CM (complete main)
Format settings, Endianness : Big
Codec ID : 2000
Duration : 1h 35mn
Bit rate mode : Constant
Bit rate : 448 Kbps
Channel(s) : 6 channels
Channel positions : Front: L C R, Side: L R, LFE
Sampling rate : 48.0 KHz
Bit depth : 16 bits
Compression mode : Lossy
Stream size : 307 MiB (21%)
Alignment : Split accross interleaves
Interleave, duration : 42 ms (1.00 video frame)
Interleave, preload duration : 500 ms


_________________



реклама партнёра


Вернуться к началу
 Профиль Отправить личное сообщение  
 
   Похожие торренты   Автор   Торрент   Размер 
В этой теме нет новых непрочитанных сообщений. Смертельная битва. Дилогия / Mortal Kombat. Dilogy [фантастика, фэнтези, боевик, 1995-1997] BDRip 720p, Mvo+Dvo+Avo+Sub

salma3

87 | 11

11.81 ГБ

В этой теме нет новых непрочитанных сообщений. Смертельная битва. Дилогия / Mortal Kombat. Dilogy [фантастика, фэнтези, боевик, триллер, приключения, 1995, 1997] BDRip-AVC, Mvo

salma3

85 | 16

2.92 ГБ

В этой теме нет новых непрочитанных сообщений. Смертельная битва / Mortal Kombat [фантастика, фэнтези, боевик, 1995] BDRip, Mvo

salma3

161 | 8

1.46 ГБ

В этой теме нет новых непрочитанных сообщений. Ultimate Mortal Kombat 3 v1.0 [Hack]

Xboxer_83

0 | 4

6.01 МБ

В этой теме нет новых непрочитанных сообщений. Mortal Kombat X [Action, Fighting, 2015] [Лицензия]

Марик

145 | 35

31.33 ГБ

В этой теме нет новых непрочитанных сообщений. Mortal Kombat Komplete Edition [Fighting, 2013] [Steam-Rip]

Dracon

182 | 18

8.16 ГБ

В этой теме нет новых непрочитанных сообщений. Mortal Kombat X [Update 7] [Action, Fighting, 3D, 2015] [RePack]

vitalikmd

158 | 9

21.89 ГБ


Начать новую тему Ответить на тему  [ 1 сообщение ] 




Для Мосгорсуда, Роскомнадзора и рекламодателей:: mosgorsud-torrent[собачка]yandex.ru