Торрент файл
скачать торрент магнет ссылка Добавлен: 07 дек 2014, 17:00
Размер: 1.45 ГБ
Сидеров: 80
Личеров: 15
Статус: (salma3)
Автор

СообщениеДобавлено: 07 дек 2014, 17:00 

В сети
Супермодератор
Аватара пользователя
Дата регистрации:
15 фев 2012, 16:44
Возраст: 28
Спасибо: 6563 / 2129
Сообщения: 43561
Приказано уничтожить / Executive Decision

Год выхода: 1996
Жанр: боевик
Режиссер: Стюарт Бейрд

В ролях: Курт Рассел, Стивен Сигал, Холли Берри, Джон Легуизамо, Оливер Плэтт, Джо Мортон, Б.Д. Вонг и др.

Описание:
В воздухе террористами захвачен "Боинг" с пассажирами на борту. Они требуют освободить из тюрьмы их лидера. Группе специального назначения предстоит найти и обезвредить находящуюся на боевом взводе бомбу, способную уничтожить все население восточных прибрежных штатов. Задача усложняется еще и тем, что всю операцию предстоит сделать скрытно и в отсутствии радиосвязи с землей…



Страна: США
Продолжительность: 02:12:44
Перевод: Профессиональный (полное дублирование)

Файл
Качество: BDRip-AVC
Формат файла: MKV
Видео кодек: H.264
Аудио кодек: AC3
Видео: 1024x432 (2.35:1), 23.976 fps, AVC (H.264), High@L3.1 ~1184 kbps, 0.112 bit/pixel
Аудио: 48 kHz, AC3 Dolby Digital, 3/2 (L,C,R,l,r) + LFE ch, ~384 kbps

Общее
Уникальный идентификатор : 239937503273947226133320823958503585683 (0xB4824840776BBFED90A62280FD3E7793)
Полное имя : E:\Executive Decision (1996).mkv
Формат : Matroska
Размер файла : 1,45 Гбайт
Продолжительность : 2 ч. 12 м.
Общий поток : 1569 Кбит/сек
Дата кодирования : UTC 2011-08-23 21:47:43
Программа кодирования : mkvmerge v4.9.1 ('Ich will') built on Jul 11 2011 23:53:15
Библиотека кодирования : libebml v1.2.1 + libmatroska v1.1.1

Видео
Идентификатор : 1
Формат : AVC
Формат/Информация : Advanced Video Codec
Профиль формата : High@L3.1
Параметр CABAC формата : Да
Параметр ReFrames формата : 4 кадра
Идентификатор кодека : V_MPEG4/ISO/AVC
Продолжительность : 2 ч. 12 м.
Битрейт : 1184 Кбит/сек
Ширина : 1024 пикс.
Высота : 432 пикс.
Соотношение сторон : 2,35:1
Частота кадров : 23,976 кадр/сек
Цветовое пространство : YUV
Подвыборка цветности : 4:2:0
Битовая глубина : 8 бит
Тип развёртки : Прогрессивная
Бит/(Пиксели*Кадры) : 0.112
Размер потока : 1,07 Гбайт (74%)
Библиотека кодирования : x264 core 116 r2057 0ba8a9c
Настройки программы : cabac=1 / ref=3 / deblock=1:0:0 / analyse=0x3:0x113 / me=hex / subme=7 / psy=1 / psy_rd=1.00:0.00 / mixed_ref=1 / me_range=16 / chroma_me=1 / trellis=1 / 8x8dct=1 / cqm=0 / deadzone=21,11 / fast_pskip=1 / chroma_qp_offset=-2 / threads=12 / sliced_threads=0 / nr=0 / decimate=1 / interlaced=0 / bluray_compat=0 / constrained_intra=0 / bframes=3 / b_pyramid=2 / b_adapt=1 / b_bias=0 / direct=1 / weightb=1 / open_gop=0 / weightp=2 / keyint=250 / keyint_min=23 / scenecut=40 / intra_refresh=0 / rc_lookahead=40 / rc=2pass / mbtree=1 / bitrate=1184 / ratetol=1.0 / qcomp=0.60 / qpmin=0 / qpmax=69 / qpstep=4 / cplxblur=20.0 / qblur=0.5 / ip_ratio=1.40 / aq=1:1.00

Аудио
Идентификатор : 2
Формат : AC-3
Формат/Информация : Audio Coding 3
Расширение режима : CM (complete main)
Идентификатор кодека : A_AC3
Продолжительность : 2 ч. 12 м.
Вид битрейта : Постоянный
Битрейт : 384 Кбит/сек
Каналы : 6 каналов
Расположение каналов : Front: L C R, Side: L R, LFE
Частота : 48,0 КГц
Битовая глубина : 16 бит
Метод сжатия : С потерями
Размер потока : 364 Мбайт (24%)


_________________
Проголосуй за трекер Открытый торрент трекер - RUS-MEDIA.ORG

Проголосуй Открытый торрент трекер - RUS-MEDIA.ORG



реклама партнёра


Вернуться к началу
 Профиль Отправить личное сообщение  
 
   Похожие торренты   Автор   Торрент   Размер 
В этой теме нет новых непрочитанных сообщений. Приказано уничтожить / Executive Decision [боевик, триллер, приключения, 1996] BDRip 720p, Dub

salma3

5 | 4

9.53 ГБ

В этой теме нет новых непрочитанных сообщений. Приказано уничтожить / Executive Decision [Боевик, триллер, приключения, 1996] HDRip, Dub

salma3

22 | 10

1.49 ГБ

В этой теме нет новых непрочитанных сообщений. Цель №1 / Executive Target [боевик, триллер, криминал, приключения, 1997] DVDRip, Mvo

salma3

30 | 2

2.06 ГБ

В этой теме нет новых непрочитанных сообщений. Смерч / Twister [боевик, триллер, драма, приключения, 1996] BDRip 720p, Dub

salma3

21 | 2

5.39 ГБ

В этой теме нет новых непрочитанных сообщений. Дневной свет / Daylight [боевик, триллер, приключения, 1996] BDRip 720p, Dub+Mvo+4Avo

salma3

8 | 4

5.81 ГБ

В этой теме нет новых непрочитанных сообщений. Первый удар / First Strike [Боевик, триллер, комедия, приключения, 1996] BDRip 1080p, Mvo

salma3

63 | 7

8.19 ГБ

В этой теме нет новых непрочитанных сообщений. В поисках приключений / The Quest [боевик, приключения, 1996] BDRip, Mvo

salma3

23 | 2

1.45 ГБ


Начать новую тему Ответить на тему  [ 1 сообщение ] 




Для Мосгорсуда, Роскомнадзора и рекламодателей:: mosgorsud-torrent[собачка]yandex.ru