Торрент файл
скачать торрент магнет ссылка Добавлен: 06 дек 2014, 11:19
Размер: 2.12 ГБ
Сидеров: 1766
Личеров: 77
Статус: (Dracon)
Автор

СообщениеДобавлено: 06 дек 2014, 11:19 

Не в сети
Зам. Админа
Аватара пользователя
Дата регистрации:
02 дек 2010, 12:39
Спасибо: 12460 / 214
Сообщения: 27968
Год выпуска: 2014
Жанр: Триллер, экранизация
Режиссер: Брэд Андерсон
В ролях: Кейт Бекинсейл, Джим Стёрджесс, Бен Кингсли, Дэвид Тьюлис, Майкл Кейн, Брендан Глисон, Джейсон Флеминг, Софи Кеннеди Кларк, Шинейд Кьюсак, Гийом Делони

Описание: По мотивам произведения Эдгара Аллана По «Система доктора Смоля и профессора Перро». Действие фильма разворачивается в конце XIX века. Молодой психиатр прибывает в психиатрическую больницу Стоунхёрст, в которой лечатся исключительно пациенты благородных кровей, для получения практического опыта. Представившись доктором Эдвардом Ньюгейтом из Оксфорда психиатр знакомится с немного странным персоналом больницы. И с первого дня пребывания доктор располагает к себе весьма привлекательную Элизу Грейвс, кажущуюся ему нормальной пациентку, которая откусила ухо и выколола глаз мужу. Спустя несколько дней Эдвард натыкается в подземелье на заключённых, утверждающих, что они все и есть настоящий обслуживающий персонал, в то время как находящиеся наверху люди - сумасшедшие все до единого, сумевшие свергнуть их и запереть в подвале в клетках. Доктор Бенджамин Солт, законный директор учреждения, просит Эдварда съездить в город за помощью либо вынудить самозванца-директора Сайлоса Лэмба проявить своё истинное лицо, чтобы вернуть всё как было. Но всё ли так просто, как кажется?


Выпущено: США / Icon Productions, Sobini Films
Продолжительность: 01:52:40
Перевод: Дублированный

Качество: BDRip (AVC)
Видео: MPEG-4 AVC, 1800 Кбит/с, 1024x426, 23.976 кадр/с
Аудио #1: Русский (AC3, 6 ch, 448 Кбит/с) / Дублированный (BD RUS)
Аудио #2: Английский (AC3, 6 ch, 448 Кбит/с)
Субтитры: Английские (Full, SDH, Colored)

Семпл






x264 [info]: frame I:1442 Avg QP:13.76 size: 60762
x264 [info]: frame P:33409 Avg QP:16.93 size: 20922
x264 [info]: frame B:127232 Avg QP:18.87 size: 5743
x264 [info]: consecutive B-frames: 2.0% 2.2% 7.5% 15.3% 16.3% 43.1% 7.2% 1.3% 2.0% 1.2% 0.7% 0.5% 0.4% 0.2% 0.3%
x264 [info]: mb I I16..4: 15.4% 60.1% 24.4%
x264 [info]: mb P I16..4: 1.3% 9.6% 1.3% P16..4: 31.4% 37.0% 13.4% 0.0% 0.0% skip: 5.9%
x264 [info]: mb B I16..4: 0.1% 0.6% 0.1% B16..8: 35.4% 20.7% 3.0% direct: 4.9% skip:35.2% L0:43.9% L1:44.2% BI:12.0%
x264 [info]: 8x8 transform intra:74.3% inter:52.8%
x264 [info]: direct mvs spatial:98.7% temporal:1.3%
x264 [info]: coded y,uvDC,uvAC intra: 80.8% 77.7% 60.9% inter: 21.9% 20.2% 8.8%
x264 [info]: i16 v,h,dc,p: 37% 8% 14% 42%
x264 [info]: i8 v,h,dc,ddl,ddr,vr,hd,vl,hu: 13% 7% 14% 8% 11% 12% 10% 12% 12%
x264 [info]: i4 v,h,dc,ddl,ddr,vr,hd,vl,hu: 15% 7% 8% 9% 13% 14% 11% 11% 11%
x264 [info]: i8c dc,h,v,p: 43% 24% 19% 14%
x264 [info]: Weighted P-Frames: Y:11.4% UV:7.2%
x264 [info]: ref P L0: 42.6% 7.8% 20.0% 7.6% 6.6% 4.3% 4.4% 2.3% 2.3% 1.8% 0.4% 0.0%
x264 [info]: ref B L0: 72.3% 12.9% 5.7% 3.0% 2.0% 1.7% 1.5% 0.6% 0.3%
x264 [info]: ref B L1: 93.0% 7.0%
x264 [info]: kb/s:1795.54
Общее
Уникальный идентификатор : 227887437580991711433698841016356449366 (0xAB718624C738954A8771E03433EA2C56)
Полное имя : D:Mои раздачиObitel.proklyatyh.2014.BDRip.(AVC)-MediaClub.mkv
Формат : Matroska
Версия формата : Version 4 / Version 2
Размер файла : 2,12 Гбайт
Продолжительность : 1 ч. 52 м.
Общий поток : 2694 Кбит/сек
Название фильма : -=MediaClub-kaspr=-
Дата кодирования : UTC 2014-12-06 06:42:09
Программа кодирования : mkvmerge v6.9.1 ('Blue Panther') 64bit built on Apr 18 2014 18:23:38
Библиотека кодирования : libebml v1.3.0 + libmatroska v1.4.1

Видео
Идентификатор : 1
Формат : AVC
Формат/Информация : Advanced Video Codec
Профиль формата : High@L4.1
Параметр CABAC формата : Да
Параметр ReFrames формата : 10 кадров
Идентификатор кодека : V_MPEG4/ISO/AVC
Продолжительность : 1 ч. 52 м.
Битрейт : 1800 Кбит/сек
Ширина : 1024 пикселя
Высота : 426 пикселей
Соотношение сторон : 2,40:1
Режим частоты кадров : Постоянный
Частота кадров : 23,976 кадра/сек
Цветовое пространство : YUV
Субдискретизация насыщенности : 4:2:0
Битовая глубина : 8 бит
Тип развёртки : Прогрессивная
Бит/(Пиксели*Кадры) : 0.172
Размер потока : 1,37 Гбайт (65%)
Заголовок : -=MediaClub-kaspr=-
Библиотека кодирования : x264 core 142 r2431+42 c69a006 tMod [8-bit@4:2:0 X86_64]
Настройки программы : cabac=1 / ref=10 / deblock=1:-3:-3 / analyse=0x3:0x113 / me=umh / subme=11 / psy=1 / fade_compensate=0.00 / psy_rd=1.00:0.20 / mixed_ref=1 / me_range=32 / chroma_me=1 / trellis=2 / 8x8dct=1 / cqm=0 / deadzone=21,11 / fast_pskip=0 / chroma_qp_offset=-3 / threads=12 / lookahead_threads=3 / sliced_threads=0 / nr=0 / decimate=0 / interlaced=0 / bluray_compat=0 / constrained_intra=0 / fgo=0 / bframes=14 / b_pyramid=2 / b_adapt=2 / b_bias=0 / direct=3 / weightb=1 / open_gop=0 / weightp=2 / keyint=240 / keyint_min=23 / scenecut=40 / intra_refresh=0 / rc=2pass / mbtree=0 / bitrate=1800 / ratetol=1.0 / qcomp=0.60 / qpmin=0:0:0 / qpmax=69:69:69 / qpstep=4 / cplxblur=20.0 / qblur=0.5 / ip_ratio=1.40 / pb_ratio=1.30 / aq=4:0.80 / aq-sensitivity=10.00 / aq-factor=1.00:1.00:1.00 / aq2=0 / aq3=0
Default : Да
Forced : Нет

Аудио #1
Идентификатор : 2
Формат : AC-3
Формат/Информация : Audio Coding 3
Расширение режима : CM (complete main)
Параметр Endianness формата : Big
Идентификатор кодека : A_AC3
Продолжительность : 1 ч. 52 м.
Вид битрейта : Постоянный
Битрейт : 448 Кбит/сек
Каналы : 6 каналов
Расположение каналов : Front: L C R, Side: L R, LFE
Частота : 48,0 КГц
Битовая глубина : 16 бит
Метод сжатия : С потерями
Размер потока : 361 Мбайт (17%)
Заголовок : Dub
Язык : Russian
Default : Да
Forced : Нет

Аудио #2
Идентификатор : 3
Формат : AC-3
Формат/Информация : Audio Coding 3
Расширение режима : CM (complete main)
Параметр Endianness формата : Big
Идентификатор кодека : A_AC3
Продолжительность : 1 ч. 52 м.
Вид битрейта : Постоянный
Битрейт : 448 Кбит/сек
Каналы : 6 каналов
Расположение каналов : Front: L C R, Side: L R, LFE
Частота : 48,0 КГц
Битовая глубина : 16 бит
Метод сжатия : С потерями
Размер потока : 361 Мбайт (17%)
Язык : English
Default : Нет
Forced : Нет

Текст #1
Идентификатор : 4
Формат : UTF-8
Идентификатор кодека : S_TEXT/UTF8
Идентификатор кодека/Информация : UTF-8 Plain Text
Заголовок : Full
Язык : English
Default : Нет
Forced : Нет

Текст #2
Идентификатор : 5
Формат : UTF-8
Идентификатор кодека : S_TEXT/UTF8
Идентификатор кодека/Информация : UTF-8 Plain Text
Заголовок : SDH
Язык : English
Default : Нет
Forced : Нет

Текст #3
Идентификатор : 6
Формат : UTF-8
Идентификатор кодека : S_TEXT/UTF8
Идентификатор кодека/Информация : UTF-8 Plain Text
Заголовок : Colored
Язык : English
Default : Нет
Forced : Нет

Меню
00:00:00.000 : en:Chapter 01
00:09:14.887 : en:Chapter 02
00:17:51.361 : en:Chapter 03
00:27:37.906 : en:Chapter 04
00:37:54.730 : en:Chapter 05
00:45:40.696 : en:Chapter 06
00:54:59.921 : en:Chapter 07
01:03:44.028 : en:Chapter 08
01:12:48.405 : en:Chapter 09
01:22:12.427 : en:Chapter 10
01:30:24.252 : en:Chapter 11
01:48:23.121 : en:Chapter 12




реклама партнёра


Вернуться к началу
 Профиль  
 
   Похожие торренты   Автор   Торрент   Размер 
В этой теме нет новых непрочитанных сообщений. Обитель проклятых / Eliza Graves [Триллер, 2014] BDRip 1080p, Dub [лицензия]

Dracon

0 | 11

12.22 ГБ

В этой теме нет новых непрочитанных сообщений. Обитель проклятых / Eliza Graves [Триллер, 2014] BDRip 720p, Dub [лицензия]

Dracon

1269 | 94

5.97 ГБ

В этой теме нет новых непрочитанных сообщений. Обитель проклятых / Eliza Graves [Триллер, 2014] HDRip, Dub [Лицензия]

Dracon

35 | 3

1.46 ГБ

В этой теме нет новых непрочитанных сообщений. Обитель проклятых / Eliza Graves [Триллер, 2014] Blu-ray RUS 1080p, Dub [лицензия]

Dracon

160 | 58

15.77 ГБ

В этой теме нет новых непрочитанных сообщений. Обитель проклятых / Eliza Graves [Триллер, 2014] BDRip 720p, dub [Чистый звук]

Dracon

10 | 2

4.67 ГБ

В этой теме нет новых непрочитанных сообщений. Обитель проклятых / Eliza Graves [Триллер, 2014] BDRip 720p, dub [Чистый звук]

Dracon

43 | 4

5.86 ГБ

В этой теме нет новых непрочитанных сообщений. Обитель проклятых / Eliza Graves [Триллер, 2014] BDRip 1080p, dub [Чистый звук]

Dracon

5 | 2

7.81 ГБ


Начать новую тему Ответить на тему  [ 1 сообщение ] 




Для Мосгорсуда, Роскомнадзора и рекламодателей:: mosgorsud-torrent[собачка]yandex.ru