Торрент файл
скачать торрент магнет ссылка Добавлен: 05 дек 2014, 16:41
Размер: 1.36 ГБ
Сидеров: 12
Личеров: 2
Статус: (salma3)
Автор

СообщениеДобавлено: 05 дек 2014, 16:41 

Не в сети
Супермодератор
Аватара пользователя
Дата регистрации:
15 фев 2012, 16:44
Возраст: 28
Спасибо: 6563 / 2130
Сообщения: 43556
День Зеро / Day Zero

Год выхода: 2007
Жанр: Драма
Режиссер: Брайан Гуннар Коул

В ролях: Элайджа Вуд, Крис Клейн, Джон Бернтал, Джиннифер Гудвин, Элизабет Мосс, Элли Шиди, Софья Васильева, Джон Ротмен, Дэниэл Орескс, Тинаше Кайесе

О фильме:
Америка снова вернулась к призывной армии. Трое друзей — адвокат, таксист и писатель — в тридцатидневный срок должны явиться на службу. У каждого из них своя жизнь, но детские узы дружбы не ослабели. Рифкин — женат, работает адвокатом, его карьера идет в гору. Недавно его назначили партнером фирмы, поэтому он ищет любую лазейку для того, чтобы не идти в армию. Феллер пишет свой второй роман. Первый роман имел оглушительный успех, и повестка о призыве в армию мешает ему, вызывая творческое бессилие. Он решает составить список 10-ти вещей, которые ему нужно сделать до того, как он начнет служить в армии. Диксон работает таксистом, живет один и охотно готов служить в армии. Но неожиданно в его жизни происходят события, которые меняют его жизнь. В течение тридцати дней их дружба проходит испытание на прочность, также как их представления о жизни, смерти, отваге и любви.



Страна: США
Продолжительность: 01:28:52
Перевод: Профессиональный [многоголосый]

Файл
Качество: SATRip
Формат файла: AVI
Видео кодек: XviD
Аудио кодек: AC3
Видео: 1991 Кбит/с, 720x400, 25.000 кадр/с
Звук: Русский (АС3, 2 ch, 192 Кбит/с)

Семпл

Общее
Полное имя : Den.Zero.2007.SATRip.MediaClub.avi
Формат : AVI
Формат/Информация : Audio Video Interleave
Размер файла : 1,36 Гбайт
Продолжительность : 1 ч. 28 м.
Общий поток : 2192 Кбит/сек
Название фильма : MediaClub
Программа кодирования : VirtualDubMod 1.5.10.2 (build 2540/release)
Библиотека кодирования : VirtualDubMod build 2540/release

Видео
Идентификатор : 0
Формат : MPEG-4 Visual
Профиль формата : Advanced Simple@L5
Параметр BVOP формата : 2
Параметр QPel формата : Нет
Параметр GMC формата : Без точки перехода
Параметр матрицы формата : Default (MPEG)
Идентификатор кодека : XVID
Идентификатор кодека/Подсказка : XviD
Продолжительность : 1 ч. 28 м.
Битрейт : 1991 Кбит/сек
Ширина : 720 пикселей
Высота : 400 пикселей
Соотношение сторон : 16:9
Частота кадров : 25,000 кадров/сек
Цветовое пространство : YUV
Субдискретизация насыщенности : 4:2:0
Битовая глубина : 8 бит
Тип развёртки : Прогрессивная
Метод сжатия : С потерями
Бит/(Пиксели*Кадры) : 0.276
Размер потока : 1,24 Гбайт (91%)
Библиотека кодирования : XviD 65

Аудио
Идентификатор : 1
Формат : AC-3
Формат/Информация : Audio Coding 3
Расширение режима : CM (complete main)
Параметр Endianness формата : Big
Идентификатор кодека : 2000
Продолжительность : 1 ч. 28 м.
Вид битрейта : Постоянный
Битрейт : 192 Кбит/сек
Каналы : 2 канала
Расположение каналов : Front: L R
Частота : 48,0 КГц
Битовая глубина : 16 бит
Метод сжатия : С потерями
Размер потока : 122 Мбайт (9%)
Выравнивание : Разделение по промежуткам
Продолжительность промежутка : 40 мс. (1,00 видеокадр)
Время предзагрузки промежутка : 500 мс.


Релиз от:


_________________
Проголосуй за трекер Открытый торрент трекер - RUS-MEDIA.ORG

Проголосуй Открытый торрент трекер - RUS-MEDIA.ORG



реклама партнёра


Вернуться к началу
 Профиль Отправить личное сообщение  
 
   Похожие торренты   Автор   Торрент   Размер 
В этой теме нет новых непрочитанных сообщений. Нулевой эффект / Принцип детектива Зеро / Zero Effect [триллер, драма, комедия, 1998] WEBRip-AVC, Mvo

salma3

98 | 6

1.45 ГБ

В этой теме нет новых непрочитанных сообщений. Нулевой эффект / Принцип детектива Зеро / Zero Effect [триллер, драма, комедия, 1998] WEBRip, Mvo

salma3

94 | 2

1.46 ГБ

В этой теме нет новых непрочитанных сообщений. Теорема Зеро / The Zero Theorem (Терри Гиллиам) [2013, фантастика, триллер, драма, комедия, BDRip 1080p] Dub+2avo

Nickolas3435

343 | 15

10.52 ГБ

В этой теме нет новых непрочитанных сообщений. Нулевой эффект / Принцип детектива Зеро / Zero Effect [триллер, драма, комедия, криминал, детектив, 1998] WEBRip 720p, Mvo+Dvo+Sub

salma3

118 | 29

4.36 ГБ

В этой теме нет новых непрочитанных сообщений. Зеро 3 / Zero 3 [триллер, 2017] WEB-DL 720р, Mvo

salma3

146 | 33

3.06 ГБ

В этой теме нет новых непрочитанных сообщений. Зеро 3 / Zero 3 [триллер, 2017] WEB-DL 1080р, Mvo

salma3

264 | 41

3.6 ГБ

В этой теме нет новых непрочитанных сообщений. Зеро 3 / Zero 3 [триллер, 2017] DVDRip, Mvo

salma3

194 | 55

1.46 ГБ


Начать новую тему Ответить на тему  [ 1 сообщение ] 




Для Мосгорсуда, Роскомнадзора и рекламодателей:: mosgorsud-torrent[собачка]yandex.ru