Торрент файл
скачать торрент магнет ссылка Добавлен: 03 дек 2014, 13:10
Размер: 1.36 ГБ
Сидеров: 35
Личеров: 5
Статус: (salma3)
Автор

СообщениеДобавлено: 03 дек 2014, 13:10 

В сети
Супермодератор
Аватара пользователя
Дата регистрации:
15 фев 2012, 16:44
Возраст: 27
Спасибо: 5121 / 2089
Сообщения: 17276
Бей и кричи / Kicking and Screaming

Год выхода: 2005
Жанр: Комедия, семейный, спорт
Режиссер: Джесси Дилан

В ролях: Уилл Феррелл, Роберт Дювалл, Майк Дитка, Кейт Уолш, Мусетта Вандер, Дилан МакЛафлин, Джош Хатчерсон, Стивен Энтони Лоуренс, Джереми Бергман, Эллиотт Чо

О фильме:
Долгие годы Фил Уэстон пытался избавиться от влияния и нравоучений своего деспотичного отца Бака и доказать ему, что он способен сам добиться успеха. Однажды ему доверяют тренировать детскую футбольную команду, в которой к тому же играет его 10-летний сын. Команда уверенно выигрывает матч за матчем. Но вскоре выясняется, что их главных соперников тренирует никто иной как Бак. И тогда победа на чемпионате становится делом чести для каждого из конкурентов…



Страна: США
Студия: Mosaic Media Group, Universal Pictures
Продолжительность: 01:30:48
Перевод: Профессиональный [многоголосый]

Файл
Качество: HDTVRip
Формат файла: AVI
Видео кодек: XviD
Аудио кодек: AC3
Видео: 1755 Кбит/с, 720x400, 25.000 кадр/с
Звук: Русский (АС3, 6 ch, 384 Кбит/с)

Семпл

Общее
Полное имя : Bej.i.krichi.2005.HDTVRip.MediaClub.avi
Формат : AVI
Формат/Информация : Audio Video Interleave
Размер файла : 1,36 Гбайт
Продолжительность : 1 ч. 30 м.
Общий поток : 2148 Кбит/сек
Название фильма : MediaClub
Программа кодирования : VirtualDubMod 1.5.10.2 (build 2540/release)
Библиотека кодирования : VirtualDubMod build 2540/release

Видео
Идентификатор : 0
Формат : MPEG-4 Visual
Профиль формата : Advanced Simple@L5
Параметр BVOP формата : 2
Параметр QPel формата : Нет
Параметр GMC формата : Без точки перехода
Параметр матрицы формата : Default (MPEG)
Идентификатор кодека : XVID
Идентификатор кодека/Подсказка : XviD
Продолжительность : 1 ч. 30 м.
Битрейт : 1755 Кбит/сек
Ширина : 720 пикселей
Высота : 400 пикселей
Соотношение сторон : 16:9
Частота кадров : 25,000 кадров/сек
Цветовое пространство : YUV
Субдискретизация насыщенности : 4:2:0
Битовая глубина : 8 бит
Тип развёртки : Прогрессивная
Метод сжатия : С потерями
Бит/(Пиксели*Кадры) : 0.244
Размер потока : 1,11 Гбайт (82%)
Библиотека кодирования : XviD 65

Аудио
Идентификатор : 1
Формат : AC-3
Формат/Информация : Audio Coding 3
Расширение режима : CM (complete main)
Параметр Endianness формата : Big
Идентификатор кодека : 2000
Продолжительность : 1 ч. 30 м.
Вид битрейта : Постоянный
Битрейт : 384 Кбит/сек
Каналы : 6 каналов
Расположение каналов : Front: L C R, Side: L R, LFE
Частота : 48,0 КГц
Битовая глубина : 16 бит
Метод сжатия : С потерями
Размер потока : 249 Мбайт (18%)
Выравнивание : Разделение по промежуткам
Продолжительность промежутка : 40 мс. (1,00 видеокадр)
Время предзагрузки промежутка : 500 мс.


Релиз от:


_________________



реклама партнёра


Вернуться к началу
 Профиль Отправить личное сообщение  
 
   Похожие торренты   Автор   Торрент   Размер 
В этой теме нет новых непрочитанных сообщений. Забыть и вспомнить / Kicking and Screaming [драма, мелодрама, комедия, 1995] DVDRip, Avo

salma3

105 | 60

1.45 ГБ

В этой теме нет новых непрочитанных сообщений. Человек с кричащим мозгом / Man with the Screaming Brain [Комедия, приключения, 2005] DVDRip, Mvo+Dvo

salma3

32 | 2

1.46 ГБ

В этой теме нет новых непрочитанных сообщений. Сумасшедшие гонки / Herbie: Fully Loaded [Комедия, приключения, семейный, спорт, фэнтези, 2005] WEB-DL 720p, Dub+2Mvo+Sub

salma3

33 | 6

4.07 ГБ

В этой теме нет новых непрочитанных сообщений. Доктор Кто, 1-7 сезоны 1-102 серии из 102 / Doctor Who (Грэм Харпер, Крис Чибнелл) [2005-2013, фантастика, приключения, комедия, семейный, DVDRip/HDTVRip/WEB-DLRip, [СТС, BaibaKo]]

Dracon

74 | 256

52.38 ГБ

В этой теме нет новых непрочитанных сообщений. Три ниндзя / 3 Ninjas [комедия, семейный, спорт, 1992] HDRip, Mvo

salma3

50 | 5

1.45 ГБ

В этой теме нет новых непрочитанных сообщений. Всё или ничего / The Longest Yard [Комедия, спорт, криминал, 2005] WEB-DL 720p, Dub+Mvo+Sub

salma3

59 | 7

4.29 ГБ

В этой теме нет новых непрочитанных сообщений. Азбука футбола / The Big Green [комедия, семейный, спорт, 1995] SATRip, Avo

salma3

13 | 2

1.47 ГБ


Начать новую тему Ответить на тему  [ 1 сообщение ] 




Для Мосгорсуда, Роскомнадзора и рекламодателей:: mosgorsud-torrent[собачка]yandex.ru