Торрент файл
скачать торрент магнет ссылка Добавлен: 02 дек 2014, 21:30
Размер: 1.17 ГБ
Сидеров: 71
Личеров: 5
Статус: (salma3)
Автор

СообщениеДобавлено: 02 дек 2014, 21:30 

Не в сети
Супермодератор
Аватара пользователя
Дата регистрации:
15 фев 2012, 16:44
Возраст: 27
Спасибо: 5148 / 2090
Сообщения: 17559
Будь моим Валентином / Be My Valentine

Год выхода: 2013
Жанр: Мелодрама
Режиссер: Грэм Кэмпбелл

В ролях: Уильям Болдуин, Натали Браун, Лиза Берри, Джеймс Томас, Кристиан Мартин, Leah McPherson, Сэди ЛеБланк, Майкл Крэм, Майкл Ксавьер, Сиам Ю

О фильме:
Одинокий отец и пожарный Ден Фаррепл за несколько недель до Дня святого Валентина прибывает тушить пожар в магазин цветов и оказывается сражён, но не огнём, а обаятельной улыбкой его хозяйки Кейт.



Страна: Канада
Студия: Nantucket Productions (I)
Продолжительность: 01:23:07
Перевод: Профессиональный [многоголосый]

Файл
Качество: SATRip
Формат файла: AVI
Видео кодек: XviD
Аудио кодек: AC3
Видео: 1808 Кбит/с, 720x400, 25.000 кадр/с
Звук: Русский (АС3, 2 ch, 192 Кбит/с)

Семпл

Общее
Полное имя : But.moim.Valentinom.2013.SATRip.MediaClub.avi
Формат : AVI
Формат/Информация : Audio Video Interleave
Размер файла : 1,17 Гбайт
Продолжительность : 1 ч. 23 м.
Общий поток : 2010 Кбит/сек
Название фильма : MediaClub
Программа кодирования : VirtualDubMod 1.5.10.2 (build 2540/release)
Библиотека кодирования : VirtualDubMod build 2540/release

Видео
Идентификатор : 0
Формат : MPEG-4 Visual
Профиль формата : Advanced Simple@L5
Параметр BVOP формата : 2
Параметр QPel формата : Нет
Параметр GMC формата : Без точки перехода
Параметр матрицы формата : Default (MPEG)
Идентификатор кодека : XVID
Идентификатор кодека/Подсказка : XviD
Продолжительность : 1 ч. 23 м.
Битрейт : 1808 Кбит/сек
Ширина : 720 пикселей
Высота : 400 пикселей
Соотношение сторон : 16:9
Частота кадров : 25,000 кадров/сек
Цветовое пространство : YUV
Субдискретизация насыщенности : 4:2:0
Битовая глубина : 8 бит
Тип развёртки : Прогрессивная
Метод сжатия : С потерями
Бит/(Пиксели*Кадры) : 0.251
Размер потока : 1,05 Гбайт (90%)
Библиотека кодирования : XviD 65

Аудио
Идентификатор : 1
Формат : AC-3
Формат/Информация : Audio Coding 3
Расширение режима : CM (complete main)
Параметр Endianness формата : Big
Идентификатор кодека : 2000
Продолжительность : 1 ч. 23 м.
Вид битрейта : Постоянный
Битрейт : 192 Кбит/сек
Каналы : 2 канала
Расположение каналов : Front: L R
Частота : 48,0 КГц
Битовая глубина : 16 бит
Метод сжатия : С потерями
Размер потока : 114 Мбайт (10%)
Выравнивание : Разделение по промежуткам
Продолжительность промежутка : 40 мс. (1,00 видеокадр)
Время предзагрузки промежутка : 500 мс.


Релиз от:


_________________



реклама партнёра


Вернуться к началу
 Профиль Отправить личное сообщение  
 
   Похожие торренты   Автор   Торрент   Размер 
В этой теме нет новых непрочитанных сообщений. Будь моим Валентином / Be My Valentine [Мелодрама, 2013] DVDRip, Mvo

salma3

97 | 4

1.37 ГБ

В этой теме нет новых непрочитанных сообщений. Диалог с моим садовником / Разговор с моим садовником / Dialogue avec mon jardinier / Conversations with My Gardener (Жан Бекер / Jean Becker) [2007г., Франция, драма, комедия, DVDRip] MVO

Alfredovich

50 | 4

1.45 ГБ

В этой теме нет новых непрочитанных сообщений. Будь мужчиной / Man Up (Бен Палмер) [мелодрама, комедия, 2015] HDRip, Mvo

Dracon

2464 | 394

1.46 ГБ

В этой теме нет новых непрочитанных сообщений. Притворись моим мужем / You May Not Kiss the Bride [мелодрама, комедия, приключения, 2012] BDRemux 1080p, Mvo

salma3

5 | 1

20.65 ГБ

В этой теме нет новых непрочитанных сообщений. Будь мужчиной / Man Up (Бен Палмер) [мелодрама, комедия, 2015] BDRip 720p, Mvo

Dracon

18 | 2

4.42 ГБ

В этой теме нет новых непрочитанных сообщений. My Bloody Valentine - mbv [2013, Pop, Rock, MP3]

PriZraK

0 | 1

83.56 МБ

В этой теме нет новых непрочитанных сообщений. Wheatus - The Valentine LP [2013, Alternative Rock, Female Vocal, MP3]

PriZraK

0 | 1

105.09 МБ


Начать новую тему Ответить на тему  [ 1 сообщение ] 




Для Мосгорсуда, Роскомнадзора и рекламодателей:: mosgorsud-torrent[собачка]yandex.ru